<?xml version="1.0" standalone="no"?>
<!DOCTYPE svg PUBLIC "-//W3C//DTD SVG 1.1//EN" "http://www.w3.org/Graphics/SVG/1.1/DTD/svg11.dtd" >
<!--
2020-8-8: Created with FontForge (http://fontforge.org)
-->
<svg xmlns="http://www.w3.org/2000/svg" xmlns:xlink="http://www.w3.org/1999/xlink" version="1.1">
<metadata>
Created by FontForge 20170731 at Sat Aug  8 01:45:17 2020
 By root

</metadata>
<defs>
<font id="Flaticon" horiz-adv-x="512" >
  <font-face 
    font-family="Flaticon"
    font-weight="400"
    font-stretch="normal"
    units-per-em="512"
    panose-1="2 0 5 3 0 0 0 0 0 0"
    ascent="448"
    descent="-64"
    bbox="-0.000366774 -64.0479 512.397 448.048"
    underline-thickness="25.6"
    underline-position="-51.2"
    unicode-range="U+0020-F136"
  />
    <missing-glyph />
    <glyph glyph-name="space" unicode=" " horiz-adv-x="200" 
 />
    <glyph glyph-name="012-message" unicode="&#xf10b;" 
d="M508.031 293.976c2.5 -1.88965 3.96777 -4.84277 3.96777 -7.97559v-320c0 -16.542 -13.458 -30 -29.999 -30h-452c-16.542 0 -30 13.458 -30 30v320c0 3.13379 1.46973 6.08594 3.96875 7.97656l52.0322 39.3418v104.682c0 5.52344 4.47656 10 10 10h40.001
c5.52246 0 10 -4.47656 10 -10c0 -5.52246 -4.47754 -10 -10 -10h-30.001v-239.368l92.7051 -70.0957l13.7412 10.3896c6.03223 4.56152 13.9023 7.07422 22.1582 7.07422h102.789c8.25586 0 16.125 -2.5127 22.1582 -7.0752l13.7412 -10.3896l92.7041 70.0957v239.369
h-249.997c-5.52246 0 -10 4.47754 -10 10c0 5.52344 4.47754 10 10 10h259.997c5.52246 0 10 -4.47656 10 -10v-104.683zM455.998 308.243v-104.489l36.001 27.2188v50.0498zM491.999 205.901l-132.124 -99.9023l132.124 -99.9004v199.803zM20 205.901v-199.803
l132.124 99.9014zM56.001 308.244l-36 -27.2207v-50.0498l36 -27.2197v104.49zM482 -44c5.51367 0 9.99902 4.48633 9.99902 10.001v15.0254l-174.509 131.948c-2.54492 1.92285 -6.22461 3.02637 -10.0967 3.02637h-102.789
c-3.87207 0 -7.55273 -1.10254 -10.0957 -3.02637l-174.509 -131.949v-15.0254c0 -5.51367 4.48633 -10 10 -10h452zM146.006 428c-5.52344 0 -10.0029 4.47754 -10.0029 10c0 5.52344 4.47266 10 9.99512 10h0.0078125c5.52246 0 10 -4.47656 10 -10
c0 -5.52246 -4.47754 -10 -10 -10zM206.007 -3.99805c5.52344 0 10 -4.47754 10 -10c0 -5.52344 -4.47656 -10 -10 -10c-5.52246 0 -10.0039 4.47656 -10.0039 10c0 5.52246 4.47461 10 9.99707 10h0.00683594zM306 -3.99805c5.52246 0 10 -4.47754 10 -10
c0 -5.52344 -4.47852 -10 -10 -10h-59.9971c-5.52246 0 -10 4.47656 -10 10c0 5.52246 4.47754 10 10 10h59.9971zM306 322.001h-0.000976562v-50.001c0 -12.6055 10.6484 -20.4072 20.5137 -20.4072c3.50977 0 8.55957 1.01855 12.6787 5.87207
c4.45312 5.24609 6.80762 13.7295 6.80762 24.5361c0 49.625 -40.375 89.999 -90 89.999c-49.626 0 -90 -40.374 -90 -89.999c0 -49.626 40.374 -90 90 -90c24.0391 0 46.6396 9.36133 63.6396 26.3604c3.90918 3.90527 10.2393 3.9043 14.1426 0
c3.90527 -3.90527 3.90527 -10.2373 0 -14.1426c-20.7783 -20.7754 -48.4014 -32.2178 -77.7822 -32.2178c-60.6533 0 -110 49.3457 -110 110c0 60.6533 49.3467 109.999 110 109.999s110 -49.3457 110 -109.999c0 -15.833 -3.88867 -28.4434 -11.5596 -37.4785
c-7.07617 -8.33789 -16.9941 -12.9287 -27.9258 -12.9287c-12.3721 0 -25.3594 6.2373 -33.1982 17.1748c-9.16309 -10.2783 -22.4932 -16.7676 -37.3154 -16.7676c-27.5703 0 -50 22.4297 -50 50c0 27.5693 22.4297 49.999 50 49.999
c11.2471 0 21.6367 -3.73438 30 -10.0264v0.0273438c0 5.52246 4.47754 9.99902 10 9.99902c5.52148 0 10 -4.47656 10 -9.99902zM256 252.001c16.542 0 30 13.458 30 30s-13.458 30 -30 30s-30 -13.458 -30 -30s13.458 -30 30 -30z" />
    <glyph glyph-name="049-donation" unicode="&#xf130;" 
d="M324.944 7.52832c-2.46777 -4.93555 -8.47266 -6.94434 -13.415 -4.47363c-21.4043 10.7021 -40.042 21.666 -55.5283 32.6523c-15.4863 -10.9863 -34.124 -21.9502 -55.5283 -32.6523c-4.93848 -2.46875 -10.9453 -0.46875 -13.417 4.47266
c-2.46973 4.93945 -0.467773 10.9463 4.47266 13.417c18.2051 9.10254 34.2373 18.3496 47.8564 27.583c-45.1523 38.1426 -43.9121 69.0859 -38.6992 84.7109c8.40039 25.1768 34.7695 38.7617 55.3145 38.7617s46.9141 -13.585 55.3145 -38.7607
c5.21387 -15.625 6.45312 -46.5684 -38.6992 -84.7109c13.6191 -9.2334 29.6514 -18.4805 47.8564 -27.583c4.94043 -2.47168 6.94238 -8.47754 4.47266 -13.417zM219.657 126.908c-6.30664 -18.9023 6.57324 -42.2383 36.3428 -66.168
c29.7695 23.9297 42.6504 47.2656 36.3428 66.168c-5.17188 15.499 -22.8906 25.0918 -36.3428 25.0918s-31.1709 -9.59277 -36.3428 -25.0918zM256 448c51.7646 0 94.4678 -39.5381 99.501 -90h110.499c5.52344 0 10 -4.47656 10 -10v-402c0 -5.52344 -4.47656 -10 -10 -10
h-165c-5.52344 0 -10 4.47656 -10 10s4.47656 10 10 10h155v262h-400v-262h155c5.52344 0 10 -4.47656 10 -10s-4.47656 -10 -10 -10h-165c-5.52344 0 -10 4.47656 -10 10v402c0 5.52344 4.47656 10 10 10h110.499c5.0332 50.4619 47.7363 90 99.501 90zM256 428
c-44.1123 0 -80 -35.8877 -80 -80c0 -18.2568 6.21484 -35.8428 17.5654 -50h124.869c11.3506 14.1572 17.5654 31.7432 17.5654 50c0 44.1123 -35.8877 80 -80 80zM456 238v100h-100.514c-1.41602 -14.1533 -5.83301 -27.7676 -12.9033 -40h33.417
c5.52344 0 10 -4.47656 10 -10s-4.47656 -10 -10 -10h-240c-5.52344 0 -10 4.47656 -10 10s4.47656 10 10 10h33.417c-7.07031 12.2324 -11.4863 25.8467 -12.9033 40h-100.514v-100h400zM256 308c-5.52344 0 -10 4.47656 -10 10v60c0 5.52344 4.47656 10 10 10
s10 -4.47656 10 -10v-60c0 -5.52344 -4.47656 -10 -10 -10zM246 -54c0 5.52246 4.47754 10 10 10s10 -4.47754 10 -10s-4.47754 -10 -10 -10s-10 4.47754 -10 10z" />
    <glyph glyph-name="009-placeholder" unicode="&#xf108;" 
d="M256 448c99.252 0 180 -80.748 180 -180c0 -32.5391 -8.7793 -64.4277 -25.3887 -92.2197l-139.243 -232.488c-2.6875 -4.48828 -7.51953 -7.25098 -12.75 -7.29199h-0.119141c-5.18555 0 -10.0078 2.67969 -12.7451 7.09082l-142.885 230.257
c-17.5801 28.3926 -26.8691 61.1182 -26.8691 94.6523c0 99.252 80.748 180 180 180zM384.866 191.182c13.8232 23.1299 21.2334 49.6973 21.2334 76.8184c0 82.71 -67.3896 150.2 -150.1 150.2s-150.2 -67.4902 -150.2 -150.2
c0 -27.9502 7.93457 -55.2139 22.5674 -78.8457l129.905 -209.34zM256 358c49.626 0 90 -40.374 90 -90c0 -48.7666 -39.0967 -90 -90 -90c-50.2832 0 -90 40.6914 -90 90c0 49.626 40.374 90 90 90zM256 207.8c33.7842 0 60.0996 27.5176 60.0996 60.2002
c0 33.084 -27.0156 60.2002 -60.0996 60.2002s-60.2002 -27.1162 -60.2002 -60.2002c0 -33.167 26.9434 -60.2002 60.2002 -60.2002z" />
    <glyph glyph-name="007-paper-plane" unicode="&#xf106;" 
d="M0.0449219 191.941c-0.626953 10.5479 5.32617 20.1553 15.0381 24.541l479.332 195.075c4.38574 1.77441 9.29395 1.04395 12.9492 -1.98438c3.55078 -2.92383 5.32617 -7.72852 4.38574 -12.3232l-78.0088 -397.563
c-2.50586 -11.6963 -12.7402 -20.0508 -24.541 -20.0508c-5.11719 0 -10.0254 1.56641 -14.2021 4.49023l-93.9863 65.0605l-66.3135 -73.4141c-2.50586 -2.82031 -5.95215 -4.28223 -9.60742 -4.28223c-1.35742 0 -2.81934 0.208984 -4.17676 0.731445
c-4.9082 1.6709 -8.35449 6.16113 -8.66797 11.2783l-6.89258 129.284l-187.556 56.7051c-10.1299 3.02832 -17.126 11.9053 -17.7529 22.4521zM236.056 15.5596l43.7568 48.3516l-48.0381 33.208zM408.783 5.63867l68.8184 350.467l-239.875 -232.043zM451.285 366.339
l-424.506 -172.831l187.347 -56.6006z" />
    <glyph glyph-name="018-house" unicode="&#xf111;" 
d="M506.004 252.505c5.29688 -4.25098 7.34277 -11.3906 5.09277 -17.7979c-2.24902 -6.40625 -8.2959 -10.7021 -15.0928 -10.7021h-48.001v-272.004c0 -8.84375 -7.15625 -16 -16 -16h-352.006c-8.84375 0 -16 7.15625 -16 16v272.004h-47.999
c-6.79688 0 -12.8438 4.2959 -15.0938 10.7021c-2.25 6.40527 -0.203125 13.5469 5.09375 17.7969l240.003 192.004c5.84375 4.65625 14.1553 4.65625 20 0l86.0166 -68.8135l0.015625 24.3281c0 8.82812 7.17285 15.9844 16 15.9844h63.9697c8.84375 0 16 -7.15625 16 -16
v-101.101zM384.002 351.99c0 0 -2.3584 0.00195312 -2.35645 0.000976562l34.3574 -27.4863v59.501h-31.9854zM224 -31.998h64.001v128.001h-64.001v-128.001zM432.003 256.006c0 0 18.3906 0 18.3906 -0.00195312l-194.394 155.519l-194.394 -155.517h18.3916
c8.84473 0 16 -7.15625 16 -16v-272.004h96.0029v144.002c0 8.84375 7.15625 16 16 16h96.001c8.84375 0 16 -7.15625 16 -16v-144.002h96.001v272.004c0 8.84375 7.15625 16 16 16z" />
    <glyph glyph-name="048-charity" unicode="&#xf12f;" 
d="M472 216.048c-4.42383 0 -8 3.57617 -8 8c0 114.696 -93.3037 208 -208 208s-208 -93.3037 -208 -208c0 -4.42383 -3.57617 -8 -8 -8s-8 3.57617 -8 8c0 123.512 100.488 224 224 224s224 -100.488 224 -224c0 -4.42383 -3.57617 -8 -8 -8zM472 216.08
c-2.14355 0 -4.28027 0.847656 -5.84766 2.54395c-17.6963 18.9922 -41.2168 29.4561 -66.2402 29.4561c-25 0 -48.5039 -10.4561 -66.1758 -29.4404c-3.0166 -3.24805 -8.68848 -3.24805 -11.7041 0c-17.6885 18.9844 -41.1846 29.4404 -66.1758 29.4404
c-25 0 -48.5049 -10.4561 -66.1846 -29.4404c-1.50391 -1.62402 -3.63184 -2.54395 -5.84766 -2.54395s-4.34375 0.919922 -5.84863 2.54395c-17.6797 18.9844 -41.1758 29.4404 -66.1758 29.4404c-24.8643 0 -48.2881 -10.3438 -65.9434 -29.1357
c-3.02441 -3.23242 -8.09668 -3.37598 -11.3047 -0.352539c-3.21582 3.02441 -3.38379 8.08789 -0.351562 11.3047c20.7119 22.0391 48.2637 34.1758 77.5996 34.1758c26.7998 0 52.0801 -10.1279 72.0322 -28.6807c19.96 18.5527 45.248 28.6807 72.04 28.6807
s52.0723 -10.1279 72.0322 -28.6807c19.9521 18.5527 45.2314 28.6807 72.0312 28.6807c29.5127 0 57.1924 -12.2646 77.9443 -34.5439c3.0166 -3.23242 2.83203 -8.2959 -0.399414 -11.3047c-1.56836 -1.43164 -3.52832 -2.14355 -5.48047 -2.14355zM255.976 95.9521
c-1.31934 0 -2.65527 0.328125 -3.8877 1.01562l-215.984 120.473c-3.85547 2.15137 -5.23926 7.02344 -3.08789 10.8799c2.15234 3.86328 7.02441 5.24805 10.8809 3.08789l215.983 -120.473c3.85645 -2.15137 5.24023 -7.02344 3.08789 -10.8799
c-1.46387 -2.62402 -4.18359 -4.10352 -6.99219 -4.10352zM255.992 95.9521c-2.71973 0 -5.36816 1.38379 -6.86426 3.87988l-72.1758 120.144c-2.27246 3.78418 -1.04785 8.7041 2.74414 10.9766c3.7998 2.27148 8.7041 1.04004 10.9756 -2.74414l72.1758 -120.144
c2.27246 -3.78418 1.04883 -8.7041 -2.74414 -10.9766c-1.28711 -0.767578 -2.71191 -1.13574 -4.11133 -1.13574zM255.976 95.9521c-1.39941 0 -2.81543 0.368164 -4.10352 1.13574c-3.79199 2.27246 -5.02441 7.18457 -2.75977 10.9766l71.8877 120.144
c2.27246 3.79199 7.17578 5.01562 10.9756 2.75977c3.79199 -2.27148 5.02441 -7.18359 2.76074 -10.9756l-71.8887 -120.152c-1.49609 -2.49609 -4.15137 -3.8877 -6.87207 -3.8877zM255.992 95.9521c-2.81641 0 -5.53613 1.48828 -7 4.1123
c-2.15234 3.86328 -0.759766 8.73535 3.10352 10.8799l216.017 120.128c3.87988 2.16797 8.74414 0.751953 10.8799 -3.10449c2.15137 -3.86426 0.759766 -8.73535 -3.10449 -10.8799l-216.016 -120.128c-1.23242 -0.6875 -2.56836 -1.00781 -3.87988 -1.00781z
M359.976 -64.0479h-160c-4.42383 0 -8 3.57617 -8 8v160c0 4.42383 3.57617 8 8 8h160c4.4248 0 8 -3.57617 8 -8v-160c0 -4.42383 -3.5752 -8 -8 -8zM207.976 -48.0479h144v144h-144v-144zM279.976 -31.9521c-2.04785 0 -4.0957 0.78418 -5.65527 2.34375l-39.7764 39.752
c-0.160156 0.160156 -0.311523 0.320312 -0.456055 0.496094c-13.6162 14.1045 -13.4717 36.6719 0.448242 50.624c6.83203 6.82422 15.8955 10.5684 25.5283 10.5684c7.18359 0 14.0557 -2.08789 19.9033 -5.96777c5.84863 3.87988 12.7119 5.95996 19.8887 5.95996
c9.64746 0 18.7275 -3.76855 25.5439 -10.6084c14.0635 -14.0801 14.0635 -36.9834 -0.00878906 -51.0557l-39.7754 -39.7686c-1.54395 -1.55957 -3.5918 -2.34375 -5.64062 -2.34375zM246.384 20.9355l33.5918 -33.5752l34.1201 34.1113
c7.83203 7.83203 7.83203 20.5928 -0.0078125 28.4404c-7.60742 7.63965 -20.832 7.63184 -28.4482 0.0078125c-2.28809 -2.2959 -5.73535 -2.99219 -8.71973 -1.74414c-1.01562 0.416016 -1.9043 1.02441 -2.63965 1.77637c-7.5918 7.5918 -20.832 7.5918 -28.4238 0
c-7.76074 -7.77637 -7.83203 -20.376 -0.224609 -28.2246c0.264648 -0.24707 0.520508 -0.519531 0.751953 -0.791992zM199.976 -64.0479h-48c-4.42383 0 -8 3.57617 -8 8v160c0 4.42383 3.57617 8 8 8h48c4.4248 0 8 -3.57617 8 -8v-160c0 -4.42383 -3.5752 -8 -8 -8z
M159.976 -48.0479h32v144h-32v-144z" />
    <glyph glyph-name="035-quote-1" unicode="&#xf122;" 
d="M0 160v224h224l-0.320312 -211.2l-34.5762 -172.8h-128.623l32 160h-92.4805zM32 352v-160h99.5195l-32 -160h63.377l29.1035 145.6v174.4h-160zM288 384h224l-0.320312 -211.2l-34.5762 -172.8h-128.623l32 160h-92.4805v224zM480 177.6v174.4h-160v-160h99.5195
l-32 -160h63.377z" />
    <glyph glyph-name="042-heart" unicode="&#xf129;" 
d="M256 -7.51562c-7.28906 0 -14.3164 2.64062 -19.793 7.4375c-20.6836 18.0859 -40.625 35.082 -58.2188 50.0742l-0.0898438 0.078125c-51.582 43.957 -96.125 81.918 -127.117 119.312c-34.6445 41.8047 -50.7812 81.4414 -50.7812 124.742
c0 42.0703 14.4258 80.8828 40.6172 109.293c26.5039 28.7461 62.8711 44.5781 102.414 44.5781c29.5547 0 56.6211 -9.34375 80.4453 -27.7695c12.0234 -9.30078 22.9219 -20.6836 32.5234 -33.9609c9.60547 13.2773 20.5 24.6602 32.5273 33.9609
c23.8242 18.4258 50.8906 27.7695 80.4453 27.7695c39.5391 0 75.9102 -15.832 102.414 -44.5781c26.1914 -28.4102 40.6133 -67.2227 40.6133 -109.293c0 -43.3008 -16.1328 -82.9375 -50.7773 -124.738c-30.9922 -37.3984 -75.5312 -75.3555 -127.105 -119.309
c-17.625 -15.0156 -37.5977 -32.0391 -58.3281 -50.168c-5.47266 -4.78906 -12.5039 -7.42969 -19.7891 -7.42969zM143.031 418.008c-31.0664 0 -59.6055 -12.3984 -80.3672 -34.9141c-21.0703 -22.8555 -32.6758 -54.4492 -32.6758 -88.9648
c0 -36.418 13.5352 -68.9883 43.8828 -105.605c29.332 -35.3945 72.9609 -72.5742 123.477 -115.625l0.09375 -0.078125c17.6602 -15.0508 37.6797 -32.1133 58.5156 -50.332c20.9609 18.2539 41.0117 35.3438 58.707 50.418
c50.5117 43.0508 94.1367 80.2227 123.469 115.617c30.3438 36.6172 43.8789 69.1875 43.8789 105.605c0 34.5156 -11.6055 66.1094 -32.6758 88.9648c-20.7578 22.5156 -49.3008 34.9141 -80.3633 34.9141c-22.7578 0 -43.6523 -7.23438 -62.1016 -21.5
c-16.4414 -12.7188 -27.8945 -28.7969 -34.6094 -40.0469c-3.45312 -5.78516 -9.53125 -9.23828 -16.2617 -9.23828s-12.8086 3.45312 -16.2617 9.23828c-6.71094 11.25 -18.1641 27.3281 -34.6094 40.0469c-18.4492 14.2656 -39.3438 21.5 -62.0977 21.5zM143.031 418.008z
" />
    <glyph glyph-name="036-supermarket" unicode="&#xf123;" 
d="M461.056 377.133c19.7705 -7.01172 33.9736 -25.8926 33.9736 -48.0371v-141.72c0 -13.6123 -5.30176 -26.4082 -14.9277 -36.0342l-200.439 -200.439c-9.93457 -9.93555 -22.9844 -14.9023 -36.0332 -14.9023s-26.0986 4.9668 -36.0332 14.9004l-141.723 141.72
c-9.62598 9.625 -14.9268 22.4219 -14.9268 36.0342c0 3.93555 0.457031 7.80078 1.31934 11.5449l-20.3662 20.3672c-9.62598 9.625 -14.9277 22.4219 -14.9277 36.0332c0 13.6123 5.30176 26.4092 14.9277 36.0342l200.438 200.439
c9.625 9.62598 22.4209 14.9268 36.0342 14.9268h141.726c28.0996 0 50.959 -22.8604 50.959 -50.959v-19.9082zM55.9209 184.589l14.9268 -14.9248l195.462 195.464c9.625 9.62598 22.4219 14.9268 36.0342 14.9268h124.738v16.9863
c0 9.36621 -7.62012 16.9863 -16.9863 16.9863h-141.724c-4.53809 0 -8.80273 -1.76855 -12.0117 -4.97559l-200.439 -200.438c-3.20801 -3.20996 -4.97559 -7.47461 -4.97559 -12.0127c0 -4.53711 1.76758 -8.80371 4.97559 -12.0117zM456.08 175.364
c3.20801 3.20898 4.97559 7.47461 4.97559 12.0127h-0.000976562v141.72c0 9.36621 -7.62012 16.9863 -16.9854 16.9863h-141.725c-4.53809 0 -8.80273 -1.76758 -12.0117 -4.97461l-200.439 -200.44c-3.20801 -3.20996 -4.97559 -7.47363 -4.97559 -12.0117
s1.76758 -8.80469 4.97559 -12.0127l141.725 -141.72c6.62207 -6.62207 17.3965 -6.62402 24.0215 0zM376.124 312.109c28.0986 0 50.959 -22.8604 50.959 -50.959c0 -28.0996 -22.8604 -50.959 -50.959 -50.959s-50.959 22.8594 -50.959 50.959
c0 28.0986 22.8604 50.959 50.959 50.959zM376.124 244.163c9.36621 0 16.9863 7.62012 16.9863 16.9863c0 9.36523 -7.62012 16.9854 -16.9863 16.9854s-16.9863 -7.62012 -16.9863 -16.9854c0 -9.36621 7.62012 -16.9863 16.9863 -16.9863z" />
    <glyph glyph-name="037-tag-1" unicode="&#xf124;" 
d="M420.64 182.934c3.24414 -3.23828 5.06836 -7.62891 5.07422 -12.208c0.00585938 -4.57812 -1.81152 -8.97949 -5.05664 -12.2129l-174.311 -174.31c-3.23828 -3.23926 -7.62891 -5.05664 -12.208 -5.05664h-0.0117188
c-4.5791 0.00585938 -8.97363 1.82324 -12.207 5.07324l-216.306 216.881c-3.21484 3.22266 -5.02832 7.58301 -5.03906 12.1338l-0.575195 174.304c-0.0107422 4.5957 1.80078 9.00879 5.05566 12.2578c3.2334 3.23926 7.62891 5.05664 12.2021 5.05664h0.0585938
l174.31 -0.574219c4.55078 -0.0117188 8.91113 -1.82324 12.1328 -5.03906zM234.157 20.8252l149.871 149.873l-199.622 199.087l-149.832 0.495117l0.495117 -149.832zM125.411 322.589c23.7939 0 43.1455 -19.3525 43.1455 -43.1455
c0 -23.7939 -19.3516 -43.1465 -43.1455 -43.1465s-43.1465 19.3525 -43.1465 43.1465s19.3525 43.1455 43.1465 43.1455zM125.411 270.813c4.75781 0 8.62891 3.87109 8.62891 8.62891c0 4.75684 -3.87109 8.62891 -8.62891 8.62891
c-4.75684 0 -8.62891 -3.87207 -8.62891 -8.62891c0 -4.75781 3.87109 -8.62891 8.62891 -8.62891zM506.926 182.934c3.24512 -3.23828 5.06836 -7.62305 5.0752 -12.208c0.00488281 -4.57812 -1.81152 -8.97949 -5.05664 -12.2129l-174.311 -174.31
c-3.37109 -3.37109 -7.78418 -5.05664 -12.2021 -5.05664s-8.83105 1.68555 -12.2012 5.05664c-6.74219 6.73633 -6.74219 17.666 0 24.4033l162.091 162.091l-204.646 204.104c-6.75293 6.73145 -6.76465 17.6553 -0.0341797 24.4092
c6.72559 6.74805 17.6553 6.76562 24.4033 0.0292969z" />
    <glyph glyph-name="030-smile" unicode="&#xf11d;" 
d="M256 448c140.951 0 256 -115.041 256 -256c0 -140.951 -115.041 -256 -256 -256c-140.951 0 -256 115.041 -256 256c0 140.951 115.041 256 256 256zM256 -34c124.617 0 226 101.383 226 226s-101.383 226 -226 226s-226 -101.383 -226 -226s101.383 -226 226 -226z
M391 192h30c0 -90.9814 -74.0186 -165 -165 -165s-165 74.0186 -165 165h30c0 -74.4395 60.5605 -135 135 -135s135 60.5605 135 135zM181 237v60h30v-60h-30zM301 237v60h30v-60h-30z" />
    <glyph glyph-name="031-play" unicode="&#xf11e;" 
d="M443.861 251.081c20.8682 -12.8486 33.3047 -35.1602 33.2549 -59.6787c-0.0498047 -24.5205 -12.5762 -46.7812 -33.5078 -59.5498l-218.611 -133.853c-9.40332 -5.75781 -21.6943 -2.80176 -27.4521 6.60254c-5.75781 9.40234 -2.80176 21.6934 6.60254 27.4512
l218.638 133.869c9.13867 5.57617 14.3779 14.8867 14.3994 25.5596c0.0224609 10.6738 -5.17871 20.0049 -14.2676 25.6016l-302.401 186.405c-9.37305 5.77051 -20.7188 6.01074 -30.3398 0.635742c-9.61914 -5.375 -15.3633 -15.1621 -15.3633 -26.1836v-371.112
c0 -18.3848 15.541 -30.8193 30.0557 -30.8984c4.73535 -0.000976562 10.0801 1.72656 15.5527 5.06445c9.41016 5.74316 21.6982 2.76855 27.4414 -6.64551c5.74316 -9.41113 2.76758 -21.6973 -6.64551 -27.4404c-11.7002 -7.14062 -24.2285 -10.9082 -36.251 -10.9092
c-0.102539 0 -0.208008 0.000976562 -0.3125 0.000976562c-38.4697 0.209961 -69.7705 31.9834 -69.7705 70.8291v371.112c0 25.6914 13.3906 48.5127 35.8193 61.042c22.4287 12.5303 48.8799 11.9707 70.7578 -1.49805z" />
    <glyph glyph-name="016-search" unicode="&#xf10f;" 
d="M508.875 -30.709c4.16602 -4.16504 4.16602 -10.9189 0.000976562 -15.085l-15.0811 -15.082c-4.16699 -4.16504 -10.9189 -4.16504 -15.0859 0l-148.732 148.732c-34.8271 -28.209 -79.1035 -45.1914 -127.31 -45.1914c-111.75 0 -202.667 90.917 -202.667 202.668
c0 111.75 90.916 202.667 202.666 202.667c111.751 0 202.668 -90.917 202.668 -202.667c0 -48.2061 -16.9814 -92.4824 -45.1914 -127.31zM202.667 85.332c88.2295 0 160.001 71.7715 160.001 160.001c0 88.2285 -71.7715 160 -160.001 160
c-88.2285 0 -160 -71.7715 -160 -160c0 -88.2295 71.7715 -160.001 160 -160.001z" />
    <glyph glyph-name="044-shopping-basket" unicode="&#xf12b;" 
d="M337.034 27.2041c-8.17188 1.36133 -13.6924 9.08984 -12.3301 17.2617l15 90c1.3623 8.17188 9.08984 13.6963 17.2617 12.3301c8.17188 -1.3623 13.6924 -9.09082 12.3301 -17.2617l-15 -90c-1.22266 -7.33691 -7.57812 -12.5371 -14.7783 -12.5371
c-0.818359 0 -1.64844 0.0683594 -2.4834 0.207031zM158.704 39.5342l-15 90c-1.3623 8.17188 4.1582 15.8994 12.3301 17.2617c8.17285 1.36133 15.8994 -4.1582 17.2617 -12.3301l15 -90c1.3623 -8.17188 -4.1582 -15.8994 -12.3301 -17.2617
c-0.834961 -0.139648 -1.66504 -0.207031 -2.4834 -0.207031c-7.20117 0 -13.5557 5.2002 -14.7783 12.5371zM497 267c8.28418 0 15 -6.71582 15 -15v-60c0 -8.28418 -6.71582 -15 -15 -15h-18.6855l-56.8916 -199.121
c-1.83984 -6.43945 -7.72559 -10.8789 -14.4229 -10.8789h-302c-6.69727 0 -12.583 4.43945 -14.4219 10.8789l-56.8926 199.121h-18.6855c-8.28418 0 -15 6.71582 -15 15v60c0 8.28418 6.71582 15 15 15h52.791l115.497 144.37
c5.17383 6.46777 14.6133 7.51758 21.083 2.3418c6.46777 -5.17383 7.5166 -14.6143 2.3418 -21.083l-100.504 -125.629h299.582l-100.503 125.629c-5.17578 6.46875 -4.12695 15.9082 2.3418 21.083c6.46973 5.17578 15.9092 4.125 21.083 -2.3418l115.496 -144.37h52.791z
M395.686 -3l51.4297 180h-382.229l51.4287 -180h279.371zM482 207v30h-452v-30h452zM256 27c-8.28418 0 -15 6.71484 -15 15v90c0 8.28418 6.71582 15 15 15s15 -6.71582 15 -15v-90c0 -8.28418 -6.71582 -15 -15 -15z" />
    <glyph glyph-name="014-guarantee" unicode="&#xf10d;" 
d="M425.328 128.715l80.6562 -117.629l-92.293 17.207l-17.207 -92.293l-76.0664 110.934c-21.1367 -7.33594 -43.8203 -11.332 -67.4258 -11.332c-23.6016 0 -46.2852 3.99609 -67.4258 11.332l-76.0625 -110.934l-17.2109 92.293l-92.293 -17.207l80.6562 117.629
c-21.3906 32.4922 -33.8633 71.3555 -33.8633 113.086c0 113.699 92.5 206.199 206.199 206.199s206.203 -92.5 206.203 -206.199c0 -41.7305 -12.4727 -80.5938 -33.8672 -113.086zM125.812 13.1484l31.5547 46.0117c-21.6484 11.3828 -41.043 26.4922 -57.3125 44.4844
l-33.9688 -49.543l50.3398 9.39062zM76.9688 241.801c0 -97.0625 78.9648 -176.027 176.023 -176.027c97.0625 0 176.027 78.9648 176.027 176.027c0 97.0586 -78.9648 176.023 -176.027 176.023c-97.0586 0 -176.023 -78.9648 -176.023 -176.023zM389.559 63.4922
l50.3438 -9.38672l-33.9688 49.5391c-16.2695 -17.9922 -35.6641 -33.1016 -57.3125 -44.4844l31.5508 -46.0117zM389.559 63.4922zM216.234 196.516l122.582 122.574l21.3359 -21.3359l-143.918 -143.914l-70.3984 70.3984l21.3359 21.3359zM216.234 196.516z" />
    <glyph glyph-name="051-down-arrow" unicode="&#xf132;" 
d="M466.208 220.864c21.8027 -21.8037 21.8027 -57.2803 0.000976562 -79.083l-202.667 -202.667c-2.07031 -2.07031 -4.7998 -3.11523 -7.53125 -3.11523c-2.73047 0 -5.46094 1.0459 -7.55176 3.11523l-202.667 202.667c-21.8027 21.8027 -21.8027 57.2793 0 79.083
c21.8027 21.8027 57.2803 21.8027 79.083 0l77.8027 -77.7812v251.584c0 29.3975 23.9365 53.333 53.333 53.333c29.3975 0 53.333 -23.9355 53.333 -53.333v-251.584l77.7812 77.7812c21.8027 21.8027 57.2803 21.8027 79.083 0zM451.125 156.864
c13.4834 13.4824 13.4834 35.4346 0.000976562 48.918c-13.0557 13.0557 -35.8613 13.0557 -48.917 0l-96 -96c-3.05078 -3.05078 -7.6377 -3.96777 -11.627 -2.30469c-3.98926 1.64355 -6.5918 5.54785 -6.5918 9.85645v277.333c0.0205078 17.6426 -14.3359 32 -31.9795 32
c-17.6426 0 -32 -14.3574 -32 -32v-277.335c0 -4.30859 -2.60254 -8.21289 -6.5918 -9.85645c-3.96777 -1.68457 -8.57617 -0.74707 -11.627 2.30469l-96 96c-6.52832 6.5498 -15.2109 10.1543 -24.4482 10.1543c-9.23633 0 -17.9199 -3.60449 -24.4473 -10.1328
c-13.4834 -13.4814 -13.4834 -35.4336 0 -48.917l195.114 -195.136z" />
    <glyph glyph-name="026-coin" unicode="&#xf119;" 
d="M437.02 373.02c48.3516 -48.3516 74.9805 -112.64 74.9805 -181.02s-26.6289 -132.668 -74.9805 -181.02c-48.3516 -48.3525 -112.64 -74.9805 -181.02 -74.9805s-132.668 26.6279 -181.02 74.9805c-48.3516 48.3516 -74.9805 112.64 -74.9805 181.02
s26.6289 132.668 74.9805 181.02c48.3516 48.3525 112.64 74.9805 181.02 74.9805s132.668 -26.6279 181.02 -74.9805zM256 -34c124.617 0 226 101.383 226 226s-101.383 226 -226 226s-226 -101.383 -226 -226s101.383 -226 226 -226zM272.067 207
c34.8477 0 63.1982 -28.3516 63.1982 -63.2002c0 -34.8477 -28.3506 -63.2002 -63.1982 -63.2002h-1.06738v-33.2002c0 -8.28418 -6.71582 -15 -15 -15s-15 6.71582 -15 15v33.2002h-33.1992c-8.28418 0 -15 6.7168 -15 15c0 8.28418 6.71582 15 15 15h64.2676
c18.3057 0 33.1982 14.8945 33.1982 33.2002c0 18.3066 -14.8926 33.2002 -33.1982 33.2002h-32.1348c-34.8477 0 -63.1992 28.3506 -63.1992 63.1992c0 34.8477 28.3506 63.2002 63.1992 63.2002h1.06641v33.1992c0 8.28418 6.71582 15 15 15s15 -6.71582 15 -15v-33.1992
h33.2002c8.28418 0 15 -6.7168 15 -15c0 -8.28418 -6.71582 -15 -15 -15h-64.2676c-18.3057 0 -33.1992 -14.8936 -33.1992 -33.2002s14.8926 -33.1992 33.1992 -33.1992h32.1348z" />
    <glyph glyph-name="004-right-quote" unicode="&#xf103;" 
d="M113.547 372.707c61.0156 0 108.758 -47.5078 113.523 -112.961c8.13281 -111.484 -48.0781 -202.461 -98.6797 -246.492c-1.50781 -1.30469 -3.375 -1.96094 -5.24902 -1.96094c-1.93066 0 -3.85254 0.695312 -5.37598 2.07812
c-4.49121 4.07812 -7.5625 7.20312 -14.2891 14.0469c-5.14062 5.23438 -12.4844 12.7188 -24.3672 24.6016c-2.72656 2.72656 -3.125 7.01562 -0.929688 10.1953c29.0391 42.1562 29.8125 72.4609 28.7812 83.5938c-59.5537 3.42188 -106.952 52.9609 -106.952 113.359
c0 62.6094 50.9287 113.539 113.538 113.539zM123.219 30.2227c22.5156 21.5625 97.0391 102.977 87.8984 228.367c-4.14844 56.8516 -45.1797 98.1172 -97.5703 98.1172c-53.7812 0 -97.5381 -43.7578 -97.5381 -97.5391c0 -53.7891 43.7568 -97.5469 97.5381 -97.5469
c2.96875 0 5.80469 -1.77344 7.1875 -4.40625c2.91406 -5.54688 9.57031 -44.2266 -25.6719 -98.5312c9.26562 -9.29688 15.375 -15.5156 19.8281 -20.0547c3.66406 -3.72656 6.14844 -6.25781 8.32812 -8.40625zM511.203 259.746
c8.125 -111.477 -48.0859 -202.453 -98.6875 -246.484c-1.50684 -1.3125 -3.37402 -1.96875 -5.25 -1.96875c-1.92188 0 -3.85156 0.695312 -5.375 2.07031c-4.51465 4.09375 -7.60156 7.23438 -14.3594 14.125c-5.14062 5.22656 -12.4688 12.6953 -24.3047 24.5312
c-2.72656 2.72656 -3.125 7.01562 -0.929688 10.1953c29.0469 42.1797 29.8281 72.4688 28.7969 83.5938c-59.5625 3.42188 -106.969 52.9609 -106.969 113.359c0 62.6094 50.9375 113.539 113.547 113.539c61 0 108.75 -47.5078 113.531 -112.953v-0.0078125z
M407.344 30.2227c22.5156 21.5625 97.0391 102.992 87.9062 228.367v-0.0078125c-4.15625 56.8594 -45.1953 98.125 -97.5781 98.125c-53.7891 0 -97.5469 -43.7578 -97.5469 -97.5391c0 -53.7891 43.7578 -97.5469 97.5469 -97.5469
c2.96973 0 5.8125 -1.78125 7.19531 -4.40625c2.90625 -5.54688 9.55469 -44.2188 -25.6875 -98.5312c9.22656 -9.25 15.3125 -15.4531 19.7656 -19.9844c3.69629 -3.76562 6.20312 -6.3125 8.39844 -8.47656z" />
    <glyph glyph-name="022-view" unicode="&#xf115;" 
d="M508.746 201.959c4.33789 -5.93066 4.33789 -13.9873 0 -19.9229c-4.57422 -6.25098 -113.558 -153.201 -252.749 -153.201c-139.19 0 -248.179 146.949 -252.748 153.206c-4.33203 5.93652 -4.33203 13.9873 0 19.9238c4.56934 6.25098 113.558 153.2 252.748 153.2
c139.191 0 248.175 -146.949 252.749 -153.206zM255.997 62.5928c102.75 0 191.365 97.4834 217.618 129.396c-26.2988 31.9023 -115.094 129.419 -217.618 129.419c-102.749 0 -191.364 -97.4824 -217.617 -129.396c26.2871 -31.8857 115.089 -129.419 217.617 -129.419z
M255.997 293.274c55.8428 0 101.275 -45.4326 101.275 -101.275c0 -55.8418 -45.4326 -101.274 -101.275 -101.274c-55.8418 0 -101.274 45.4326 -101.274 101.274c0 55.8428 45.4326 101.275 101.274 101.275zM255.997 124.483c37.2305 0 67.5166 30.2871 67.5166 67.5156
c0 37.2295 -30.2871 67.5166 -67.5166 67.5166c-37.2285 0 -67.5156 -30.2871 -67.5156 -67.5166c0 -37.2285 30.2861 -67.5156 67.5156 -67.5156z" />
    <glyph glyph-name="020-email" unicode="&#xf113;" 
d="M512 244.94v-0.00878906v-253.926c0 -15.7197 -6.63965 -29.9102 -17.25 -39.9424c-0.298828 -0.299805 -0.598633 -0.594727 -0.917969 -0.864258c-9.75781 -8.81641 -22.6777 -14.1934 -36.832 -14.1934h-402c-14.1533 0 -27.0723 5.37598 -36.8291 14.1904
c-0.322266 0.270508 -0.624023 0.568359 -0.924805 0.870117c-10.6084 10.0322 -17.2461 24.2207 -17.2461 39.9385v253.927v0.00878906v0.0449219c0 0.426758 0.0244141 0.849609 0.0576172 1.26855c0.0107422 0.115234 0.0253906 0.229492 0.0371094 0.34375
c0.0361328 0.330078 0.0820312 0.657227 0.139648 0.981445c0.0205078 0.12207 0.0419922 0.243164 0.0654297 0.365234c0.0800781 0.394531 0.170898 0.787109 0.282227 1.17188c0.0107422 0.0390625 0.0195312 0.0771484 0.03125 0.115234
c0.115234 0.394531 0.25293 0.780273 0.400391 1.16211c0.0566406 0.146484 0.118164 0.290039 0.179688 0.43457c0.109375 0.257812 0.225586 0.512695 0.349609 0.763672c0.0712891 0.146484 0.139648 0.292969 0.216797 0.4375
c0.1875 0.351562 0.386719 0.695312 0.600586 1.03027c0.0800781 0.125 0.167969 0.245117 0.251953 0.368164c0.166992 0.244141 0.339844 0.484375 0.520508 0.719727c0.0976562 0.125 0.194336 0.25 0.294922 0.371094
c0.263672 0.319336 0.536133 0.631836 0.825195 0.928711c0.0234375 0.0224609 0.0449219 0.046875 0.0683594 0.0693359c0.30957 0.31543 0.639648 0.612305 0.978516 0.900391c0.0419922 0.0361328 0.0791016 0.0761719 0.121094 0.111328l25.5791 21.2275v65.2295
c0 19.2988 15.7012 35 35 35h85.7764l69.0996 57.3438c20.3516 16.8877 49.8936 16.8877 70.248 0l69.0996 -57.3447h85.7764c19.2988 0 35 -15.7012 35 -35v-65.2295l25.5781 -21.2246c0.0429688 -0.0351562 0.0791016 -0.0751953 0.121094 -0.111328
c0.338867 -0.288086 0.668945 -0.584961 0.978516 -0.900391c0.0234375 -0.0224609 0.0449219 -0.046875 0.0683594 -0.0693359c0.290039 -0.296875 0.561523 -0.609375 0.825195 -0.927734c0.100586 -0.123047 0.197266 -0.24707 0.294922 -0.37207
c0.180664 -0.234375 0.353516 -0.474609 0.520508 -0.719727c0.0839844 -0.123047 0.171875 -0.243164 0.251953 -0.368164c0.213867 -0.335938 0.413086 -0.679688 0.600586 -1.03027c0.0761719 -0.144531 0.144531 -0.291016 0.216797 -0.4375
c0.124023 -0.250977 0.241211 -0.505859 0.349609 -0.763672c0.0615234 -0.145508 0.123047 -0.288086 0.179688 -0.433594c0.147461 -0.382812 0.283203 -0.769531 0.400391 -1.16309c0.0117188 -0.0380859 0.0205078 -0.0771484 0.03125 -0.115234
c0.111328 -0.384766 0.202148 -0.777344 0.282227 -1.17188c0.0234375 -0.121094 0.0449219 -0.243164 0.0654297 -0.365234c0.0576172 -0.324219 0.103516 -0.651367 0.139648 -0.981445c0.0117188 -0.114258 0.0263672 -0.228516 0.0371094 -0.34375
c0.0341797 -0.420898 0.0585938 -0.84375 0.0585938 -1.27051v-0.0449219zM66 347.985c-2.75684 0 -5 -2.24316 -5 -5v-116.683l8.48828 -7.04492l170.546 -141.532c9.25098 -7.67578 22.6807 -7.67676 31.9316 0l170.546 141.533l8.48828 7.04395v116.683
c0 2.75684 -2.24316 5 -5 5h-380zM30 -8.99512c0 -3.03125 0.542969 -5.9375 1.53613 -8.62793l151.396 103.752l-146.469 121.551c-0.00390625 0.00292969 -0.0078125 0.00683594 -0.0117188 0.0107422l-6.45215 5.35449v-222.04zM206.937 66.209l-146.221 -100.204
h390.567l-146.22 100.204l-13.9395 -11.5684c-20.3516 -16.8887 -49.8965 -16.8896 -70.248 0zM329.067 86.1279l151.396 -103.751c0.993164 2.69043 1.53613 5.59668 1.53613 8.62793v222.04l-6.45215 -5.35449
c-0.00390625 -0.00390625 -0.0078125 -0.0078125 -0.0117188 -0.0107422zM240.034 412.242l-41.2812 -34.2578h114.494l-41.2812 34.2578c-9.25098 7.67676 -22.6807 7.67676 -31.9316 0zM131.5 283.005c0 8.28418 6.71582 15 15 15h142c8.28418 0 15 -6.71582 15 -15
s-6.71582 -15 -15 -15h-142c-8.28418 0 -15 6.71582 -15 15zM146.5 208.005c-6.98828 0 -12.8428 4.78516 -14.5088 11.2539c-0.30957 1.19922 -0.491211 2.4502 -0.491211 3.74609c0 8.28418 6.71582 15 15 15h219c8.28418 0 15 -6.71582 15 -15
c0 -1.2959 -0.181641 -2.5459 -0.491211 -3.74609c-1.66602 -6.46777 -7.52051 -11.2539 -14.5088 -11.2539h-219z" />
    <glyph glyph-name="032-left-arrow-angle-big-gross-symbol" unicode="&#xf11f;" 
d="M205.487 192.011l197.011 -178.729c17.6846 -17.6846 17.6846 -46.3311 0 -64.0166c-17.6855 -17.6855 -46.332 -17.6855 -64.0176 0l-229.168 207.886c-9.55566 9.55566 -13.7695 22.3252 -12.9824 34.8389c-0.787109 12.5137 3.42676 25.2832 12.9824 34.8389
l229.147 207.908c17.6846 17.6846 46.3311 17.6846 64.0166 0c17.6855 -17.6855 17.6855 -46.332 0 -64.0176z" />
    <glyph glyph-name="003-next" unicode="&#xf102;" 
d="M371.578 332.422l140.422 -140.421l-140.422 -140.423l-22.8066 22.8076l101.487 101.486h-450.259v32.2549h450.259l-101.487 101.487z" />
    <glyph glyph-name="027-cost" unicode="&#xf11a;" 
d="M195.84 51.6055c8.26953 0 15 6.73047 15 15c0 8.27344 -6.73047 15 -15 15c-24.8125 0 -45 20.1875 -45 45c0 19.6172 12.6172 36.3281 30.1602 42.4766v21.918c0 8.28516 6.71484 15 15 15s15 -6.71484 15 -15v-22.0273
c17.375 -6.23828 29.8398 -22.8711 29.8398 -42.3672c0 -8.28516 -6.71484 -15 -15 -15s-15 6.71484 -15 15c0 8.27344 -6.73047 15 -15 15s-15 -6.72656 -15 -15c0 -8.26953 6.73047 -15 15 -15c24.8125 0 45 -20.1875 45 -45
c0 -19.4961 -12.4648 -36.1289 -29.8398 -42.3633v-13.2422c0 -8.28516 -6.71484 -15 -15 -15s-15 6.71484 -15 15v13.1328c-17.543 6.14844 -30.1602 22.8594 -30.1602 42.4727c0 8.28516 6.71484 15 15 15s15 -6.71484 15 -15c0 -8.26953 6.73047 -15 15 -15z
M195.84 51.6055zM61.1406 -39.5039c-40.5703 21.7227 -61.1406 58.8984 -61.1406 110.504c0 74.7031 42.2969 143.691 102.48 180.016c-7.13281 7.96484 -11.4805 18.4766 -11.4805 29.9844c0 17.9258 10.5391 33.4336 25.7461 40.6641l-25.0078 76.6836
c-1.48828 4.57031 -0.699219 9.57422 2.12109 13.4609c2.82422 3.89062 7.33594 6.19141 12.1406 6.19141h47.5703c6.19141 17.4609 22.8711 30 42.4297 30c19.5547 0 36.2266 -12.5391 42.4219 -30h47.5781c4.80469 0 9.31641 -2.30078 12.1406 -6.19141
c2.82031 -3.88672 3.60938 -8.89062 2.12109 -13.4609l-25.0078 -76.6836c15.207 -7.23047 25.7461 -22.7383 25.7461 -40.6641c0 -11.5 -4.34375 -22.0039 -11.4648 -29.9648c19.4375 -11.7266 37.0781 -27.0156 52.1328 -45.25
c1.42578 0.140625 2.87109 0.214844 4.33203 0.214844h121c24.8125 0 45 -20.1875 45 -45c0 -11.5156 -4.35156 -22.0312 -11.4961 -30c7.14062 -7.96875 11.4961 -18.4844 11.4961 -30s-4.35156 -22.0312 -11.4961 -30c7.14062 -7.96875 11.4961 -18.4844 11.4961 -30
s-4.35156 -22.0312 -11.4961 -30c7.14062 -7.96875 11.4961 -18.4844 11.4961 -30c0 -24.8125 -20.1875 -45 -45 -45h-121c-13.7812 0 -26.1289 6.23438 -34.3906 16.0234c-28.9219 -10.8984 -66.1484 -16.0234 -115.609 -16.0234
c-60.7891 0 -103.645 7.78516 -134.859 24.4961zM482 101c0 8.26953 -6.73047 15 -15 15h-121c-8.26953 0 -15 -6.73047 -15 -15s6.73047 -15 15 -15h121c8.26953 0 15 6.73047 15 15zM482 41c0 8.26953 -6.73047 15 -15 15h-121c-8.26953 0 -15 -6.73047 -15 -15
s6.73047 -15 15 -15h121c8.26953 0 15 6.73047 15 15zM467 -34c8.26953 0 15 6.73047 15 15s-6.73047 15 -15 15h-121c-8.26953 0 -15 -6.73047 -15 -15s6.73047 -15 15 -15h121zM482 161c0 8.26953 -6.73047 15 -15 15h-121c-8.26953 0 -15 -6.73047 -15 -15
s6.73047 -15 15 -15h121c8.26953 0 15 6.73047 15 15zM255.57 266c0.128906 0.00390625 0.257812 0 0.382812 0h0.046875c8.26953 0 15 6.73047 15 15c0 8.25391 -6.70312 14.9727 -14.9531 14.9961h-0.0429688c-0.0351562 0 -0.0742188 0.00390625 -0.109375 0.00390625
h-119.793c-0.0351562 0 -0.0703125 -0.00390625 -0.105469 -0.00390625h-0.0429688c-8.25 -0.0234375 -14.9531 -6.74219 -14.9531 -14.9961c0 -8.26953 6.73047 -15 15 -15h0.0351562c0.132812 0 0.265625 0.00390625 0.398438 0h119.137zM166 388h-39.332l20.2188 -62
h98.2266l20.2188 62h-24.332v-15c0 -8.28516 -6.71484 -15 -15 -15s-15 6.71484 -15 15v30c0 8.26953 -6.73047 15 -15 15s-15 -6.73047 -15 -15c0 -8.28516 -6.71484 -15 -15 -15zM138.926 236c-64.2695 -26.8281 -108.926 -94.25 -108.926 -165
c0 -40.8008 14.3945 -67.5078 45.3008 -84.0547c26.6875 -14.2891 65.043 -20.9453 120.699 -20.9453c45.8516 0 79.6484 4.5 105.023 14.082c-0.0078125 0.304688 -0.0234375 0.609375 -0.0234375 0.917969c0 11.5156 4.35547 22.0312 11.4961 30
c-7.14062 7.96875 -11.4961 18.4844 -11.4961 30s4.35547 22.0312 11.4961 30c-7.14062 7.96875 -11.4961 18.4844 -11.4961 30s4.35547 22.0312 11.4961 30c-7.14062 7.96875 -11.4961 18.4844 -11.4961 30c0 12.1484 4.84766 23.1797 12.6992 31.2852
c-17.2656 19.2852 -37.9688 34.2266 -60.6836 43.7148h-114.09zM138.926 236z" />
    <glyph glyph-name="002-back" unicode="&#xf101;" 
d="M512 208.127v-32.2549h-450.258l101.487 -101.486l-22.8076 -22.8086l-140.422 140.424l140.422 140.421l22.8076 -22.8076l-101.487 -101.487h450.258z" />
    <glyph glyph-name="010-diamond" unicode="&#xf109;" 
d="M256.199 -39.4297c-2.76465 0 -5.3877 1.25195 -7.12109 3.40332l-203.816 252.765c-2.20898 2.74316 -2.64941 6.51855 -1.13086 9.69629c1.52344 3.17773 4.72754 5.2041 8.25098 5.2041h407.629c3.52344 0 6.73242 -2.02637 8.25586 -5.2041
c1.51855 -3.17773 1.0791 -6.94727 -1.13574 -9.69141l-203.812 -252.764c-1.73828 -2.15723 -4.35645 -3.40918 -7.12012 -3.40918zM71.5186 213.335l184.681 -229.036l184.681 229.036h-369.361zM71.5186 213.335zM460.021 213.335
c-3.15625 0 -6.23535 1.63867 -7.92578 4.56543l-66.2363 114.383h-259.319l-66.2354 -114.383c-2.5293 -4.37207 -8.12012 -5.8584 -12.5029 -3.33008c-4.37695 2.5293 -5.86328 8.12598 -3.33496 12.498l68.8799 118.952c1.63867 2.82812 4.6543 4.56543 7.9209 4.56543
h269.864c3.2666 0 6.2832 -1.7373 7.92188 -4.56543l68.874 -118.952c2.53418 -4.37207 1.04199 -9.96875 -3.33008 -12.498c-1.44531 -0.836914 -3.02051 -1.23535 -4.57617 -1.23535zM460.021 213.335zM256.199 -39.4297c-4.02148 0 -7.57617 2.62891 -8.75391 6.47656
l-77.1992 252.77c-0.795898 2.60254 -0.392578 5.41895 1.10449 7.70215l77.2041 117.346c1.71777 2.61719 4.79102 4.16211 7.78516 4.12012c3.12598 -0.046875 6.0166 -1.69141 7.65527 -4.35645l72.0518 -117.351c1.34082 -2.18262 1.70703 -4.83203 1.00586 -7.29785
l-72.0527 -252.765c-1.11523 -3.90039 -4.66016 -6.60254 -8.7168 -6.63867c-0.0263672 -0.00585938 -0.0576172 -0.00585938 -0.0839844 -0.00585938zM189.005 221.047l66.8906 -219.01l62.4551 219.089l-62.4189 101.654zM189.005 221.047zM256.199 392.445
c-5.05273 0 -9.15234 4.09961 -9.15234 9.15137v37.0576c0 5.05273 4.09961 9.14648 9.15234 9.14648c5.05176 0 9.14648 -4.09375 9.14648 -9.14648v-37.0576c0 -5.05176 -4.09473 -9.15137 -9.14648 -9.15137zM256.199 392.445zM398.241 373.916
c-1.60254 0 -3.22559 0.418945 -4.70215 1.30371c-4.33496 2.59668 -5.73828 8.21973 -3.13574 12.5498l18.5283 30.8848c2.59668 4.33496 8.21973 5.74316 12.5557 3.13672c4.33496 -2.60254 5.73828 -8.22559 3.13574 -12.5557l-18.5283 -30.8789
c-1.71777 -2.85938 -4.74414 -4.44043 -7.85352 -4.44043zM398.241 373.916zM478.534 293.628c-2.00586 0 -4.02637 0.655273 -5.71191 2.00586c-3.94824 3.15137 -4.58691 8.91113 -1.42969 12.8584l24.707 30.8799c3.16211 3.95215 8.9209 4.58105 12.8584 1.42871
c3.95312 -3.15137 4.5918 -8.91113 1.42969 -12.8584l-24.707 -30.8799c-1.80664 -2.26172 -4.46582 -3.43457 -7.14648 -3.43457zM478.534 293.628zM114.157 373.916c-3.11035 0 -6.1416 1.58105 -7.8584 4.44043l-18.5293 30.8789
c-2.59668 4.33496 -1.19336 9.95312 3.13574 12.5557c4.33008 2.60156 9.95312 1.19824 12.5557 -3.13672l18.5283 -30.8848c2.60254 -4.33008 1.19922 -9.95312 -3.13574 -12.5498c-1.47168 -0.884766 -3.09473 -1.30371 -4.69629 -1.30371zM114.157 373.916z
M33.8643 293.628c-2.68066 0 -5.3457 1.17285 -7.15234 3.43457l-24.707 30.8799c-3.15625 3.94727 -2.51758 9.70703 1.42969 12.8584c3.9375 3.15723 9.69629 2.52344 12.8584 -1.42871l24.707 -30.8799c3.16211 -3.94727 2.52344 -9.70703 -1.42969 -12.8584
c-1.68555 -1.35059 -3.70117 -2.00586 -5.70605 -2.00586zM33.8643 293.628z" />
    <glyph glyph-name="052-down-arrow-1" unicode="&#xf133;" 
d="M374.108 74.6719c7.83105 -7.79297 7.85742 -20.457 0.0673828 -28.2852l-104 -104.504c-0.00585938 -0.00585938 -0.0126953 -0.0107422 -0.0185547 -0.0175781c-7.81836 -7.83301 -20.5225 -7.80859 -28.3145 0.000976562
c-0.00585938 0.00585938 -0.0126953 0.0107422 -0.0185547 0.0175781l-104 104.504c-7.79102 7.8291 -7.7627 20.4922 0.0673828 28.2852c7.8291 7.79199 20.4922 7.76172 28.2842 -0.0664062l69.8242 -70.1641v423.558c0 11.0459 8.9541 20 20 20s20 -8.9541 20 -20
v-423.557l69.8242 70.1621c7.79199 7.82812 20.4551 7.8584 28.2842 0.0664062z" />
    <glyph glyph-name="046-pencil-case" unicode="&#xf12d;" 
d="M440.417 447.511c4.5 -1.36426 7.58301 -5.50977 7.58398 -10.208v-74.6621c0 -1.01953 -0.145508 -2.03027 -0.4375 -3.00977l-49.5127 -168.328c4.20898 -1.42676 7.2832 -5.28906 7.2832 -9.9834v-202.655c0 -23.5303 -19.1455 -42.6641 -42.667 -42.6641h-170.667
c-23.5215 0 -42.667 19.1338 -42.667 42.6641v42.6641c-47.0615 0 -85.333 38.2793 -85.333 85.3281v21.332c0 23.5293 19.1465 42.665 42.666 42.665h42.667v10.666c0 5.89453 4.77051 10.666 10.667 10.666h1.68945l-44.0205 176.057
c-4.55859 -2.17676 -7.19824 -7.24121 -5.83496 -12.2646l26.458 -96.9941c1.54199 -5.67676 -1.79102 -11.541 -7.47852 -13.0928c-0.938477 -0.260742 -1.89648 -0.375 -2.81348 -0.375c-4.68848 0 -9 3.11328 -10.292 7.86328l-26.458 96.9941
c-4.47461 16.502 5.00684 33.6533 21.1777 38.8242l-4.80273 19.2139c-2.08398 8.27051 -0.813477 16.8838 3.58301 24.2168c4.41602 7.33301 11.3945 12.5205 19.708 14.5938c8.22852 2.07227 16.792 0.832031 24.125 -3.53125
c7.375 -4.40625 12.584 -11.416 14.667 -19.7588l4.83984 -19.3584c2.96875 -1.18066 5.43359 -3.50391 6.36914 -6.80664c1.0166 -3.54004 -0.0400391 -7.05859 -2.24609 -9.68359l48.9736 -195.898h7.02148v245.318c0 5.89551 4.77051 10.666 10.667 10.666h85.333
c5.89551 0 10.667 -4.76953 10.667 -10.666v-216.155l43.0635 155.015c0.291992 1.09277 0.770508 2.125 1.39551 3.06152l42.667 63.9961c2.60449 3.90625 7.41602 5.67676 11.958 4.29102zM149.333 42.667v106.666h-42.667c-11.7695 0 -21.333 -9.57324 -21.333 -21.333
v-21.333c0 -35.292 28.708 -64 64 -64zM256 426.667v-234.667h64v42.666h-32c-5.89648 0 -10.667 4.77051 -10.667 10.667c0 5.89551 4.77051 10.667 10.667 10.667h32v42.666h-32c-5.89648 0 -10.667 4.77051 -10.667 10.667c0 5.89551 4.77051 10.667 10.667 10.667h32
v42.666h-32c-5.89648 0 -10.667 4.77051 -10.667 10.667c0 5.89551 4.77051 10.667 10.667 10.667h32v42.667h-64zM128.333 413.427l4.61035 -18.4375l20.4951 5.85449l-4.43848 17.75c-0.688477 2.79102 -2.43848 5.13477 -4.89648 6.60449
c-2.41504 1.4375 -5.22852 1.83398 -7.97852 1.16699c-2.81152 -0.708008 -5.14648 -2.4375 -6.60352 -4.875c-1.45996 -2.44824 -1.89648 -5.30371 -1.18848 -8.06348zM138.122 374.268l45.5664 -182.268h21.958l-47.0293 188.123zM384 -21.333v192h-213.333v-192
c0 -11.7598 9.56152 -21.333 21.333 -21.333h170.667c11.7695 0 21.333 9.57324 21.333 21.333zM376.022 192l47.9443 163.018l-21.8105 5.45312l-46.7969 -168.471h20.6631zM426.667 376.323v25.7822l-14.7363 -22.0986z" />
    <glyph glyph-name="015-coffee-cup" unicode="&#xf10e;" 
d="M80 166c0 -5.52344 -4.47656 -10 -10 -10s-10 4.47656 -10 10s4.47656 10 10 10s10 -4.47656 10 -10zM80 166zM135.383 54.8555c4.65625 -2.97266 6.01562 -9.15625 3.04297 -13.8086c-2.99219 -4.68359 -9.18359 -6 -13.8086 -3.04297
c-30.8867 19.7344 -52.5117 50.2266 -60.8906 85.8555c-1.26562 5.37891 2.07031 10.7617 7.44531 12.0234c5.375 1.26562 10.7578 -2.06641 12.0234 -7.44531c7.17969 -30.5312 25.7148 -56.6641 52.1875 -73.582zM135.383 54.8555zM483.922 241.98
c11.5156 -12.7227 17.1445 -29.8164 15.4375 -46.8945c-4.62109 -46.1562 -22.8984 -87.4375 -51.4727 -116.234c-27.9492 -28.168 -63.5586 -42.8086 -103.676 -42.8125c-3.22266 0 -6.47656 0.105469 -9.75781 0.292969
c-6.57031 -7.38281 -13.6797 -14.1719 -21.2969 -20.332h96.8438c5.52344 0 10 -4.47656 10 -10s-4.47656 -10 -10 -10c-5.88281 0 -11.1406 -3.94922 -12.7891 -9.60938c-8.63281 -29.668 -36.2734 -50.3906 -67.2109 -50.3906h-240
c-30.9414 0 -58.5781 20.7227 -67.2109 50.3945c-1.64844 5.65625 -6.90625 9.60547 -12.7891 9.60547c-5.52344 0 -10 4.47656 -10 10s4.47656 10 10 10h76.8555c-41.8711 33.8164 -66.8555 84.9531 -66.8555 140v122c0 5.52344 4.47656 10 10 10h340
c5.52344 0 10 -4.47656 10 -10v-16h58.8008c17.1602 0 33.6055 -7.29688 45.1211 -20.0195zM380 202v-46c0 -19.543 -3.07812 -38.5781 -9.15625 -56.8125c53.9648 14.4062 66.0977 74.7852 68.8047 101.879c0.03125 0.273438 0.0390625 0.382812 -0.234375 0.6875
c-0.210938 0.230469 -0.324219 0.246094 -0.613281 0.246094h-58.8008zM378.008 -8.00781c0.402344 1.38281 0.890625 2.72266 1.46094 4.01953h-338.938c0.570312 -1.29297 1.05859 -2.64453 1.46094 -4.02344c6.16406 -21.1914 25.9062 -35.9883 48.0078 -35.9883h240
c22.1016 0 41.8438 14.8086 48.0078 35.9922zM122.523 16h154.977c50.3828 27.9609 82.5 81.0469 82.5 140v112h-320v-112c0 -58.3438 31.5664 -111.75 82.5234 -140zM479.461 197.074c1.16016 11.6328 -2.51953 22.8164 -10.3672 31.4844
c-7.84375 8.66797 -18.6016 13.4414 -30.293 13.4414h-58.8008v-20h58.8008c5.96094 0 11.4531 -2.43359 15.4648 -6.84766c4.01953 -4.48828 5.88281 -10.1836 5.28516 -16.0898c-3.26953 -32.6797 -13.2656 -60.9844 -28.9062 -81.8438
c-16.9883 -22.6562 -40.6992 -36.457 -68.8398 -40.1484c-3.53516 -7.23438 -7.5625 -14.2148 -12.0352 -20.9141c79.5703 3.07422 122.875 72.832 129.691 140.918zM479.461 197.074zM191.711 363c0 11.6992 3.72266 22.7969 10.4805 31.2461
c8.13281 10.1641 8.13281 27.3398 0 37.5039c-3.44922 4.31641 -2.75391 10.6094 1.5625 14.0586c4.3125 3.44922 10.6055 2.75 14.0547 -1.5625c14.0195 -17.5195 14.0195 -44.9727 0 -62.4961c-3.875 -4.84375 -6.09766 -11.6758 -6.09766 -18.75
s2.22266 -13.9062 6.09766 -18.7539c3.44922 -4.3125 2.75 -10.6055 -1.5625 -14.0547c-4.30078 -3.44141 -10.5938 -2.76562 -14.0547 1.5625c-6.75781 8.44922 -10.4805 19.5469 -10.4805 31.2461zM191.711 363zM251.711 363c0 11.6992 3.72266 22.7969 10.4805 31.2461
c8.13281 10.1641 8.13281 27.3398 0 37.5039c-3.44922 4.31641 -2.75391 10.6094 1.5625 14.0586c4.3125 3.44922 10.6055 2.75 14.0547 -1.5625c14.0195 -17.5195 14.0195 -44.9727 0 -62.4961c-3.875 -4.84375 -6.09766 -11.6758 -6.09766 -18.75
s2.22266 -13.9062 6.09766 -18.7539c3.44922 -4.3125 2.75 -10.6055 -1.5625 -14.0547c-4.30078 -3.44141 -10.5938 -2.76562 -14.0547 1.5625c-6.75781 8.44922 -10.4805 19.5469 -10.4805 31.2461zM251.711 363zM131.711 363c0 11.6992 3.72266 22.7969 10.4805 31.2461
c8.13281 10.1641 8.13281 27.3398 0 37.5039c-3.44922 4.31641 -2.75391 10.6094 1.5625 14.0586c4.30859 3.44922 10.6055 2.75 14.0547 -1.5625c14.0195 -17.5195 14.0195 -44.9727 0 -62.4961c-3.875 -4.84375 -6.09766 -11.6758 -6.09766 -18.75
s2.22266 -13.9062 6.09766 -18.7539c3.44922 -4.3125 2.75 -10.6055 -1.5625 -14.0547c-4.30078 -3.44141 -10.5938 -2.76562 -14.0547 1.5625c-6.75781 8.44922 -10.4805 19.5469 -10.4805 31.2461zM131.711 363z" />
    <glyph glyph-name="043-heart-1" unicode="&#xf12a;" 
d="M471.383 403.422c26.1914 -28.4102 40.6172 -67.2227 40.6172 -109.289c0 -43.3047 -16.1328 -82.9414 -50.7773 -124.742c-30.9922 -37.3984 -75.5352 -75.3555 -127.109 -119.305c-17.6211 -15.0195 -37.5977 -32.043 -58.3281 -50.1719
c-5.46875 -4.78906 -12.5 -7.42969 -19.7852 -7.42969c-7.28906 0 -14.3164 2.64062 -19.793 7.4375c-20.7305 18.125 -40.6953 35.1406 -58.3086 50.1523c-51.582 43.957 -96.125 81.918 -127.117 119.312c-34.6445 41.8047 -50.7812 81.4414 -50.7812 124.742
c0 42.0703 14.4258 80.8828 40.6133 109.293c26.5039 28.7461 62.875 44.5781 102.414 44.5781c29.5547 0 56.6211 -9.34375 80.4453 -27.7695c12.0273 -9.30078 22.9258 -20.6836 32.5273 -33.9609c9.60547 13.2812 20.5 24.6602 32.5234 33.9609
c23.8281 18.4258 50.8945 27.7695 80.4492 27.7695c39.5391 0 75.9062 -15.832 102.41 -44.5781zM471.383 403.422z" />
    <glyph glyph-name="008-envelope" unicode="&#xf107;" 
d="M464 384c26.4688 0 48 -21.5312 48 -48v-288c0 -26.4688 -21.5312 -48 -48 -48h-416c-26.4688 0 -48 21.5312 -48 48v288c0 26.4688 21.5312 48 48 48h416zM464 352h-416.001c-2.17383 0 -4.24121 -0.452148 -6.13281 -1.23828l214.134 -185.59l214.132 185.59
c-1.89062 0.788086 -3.95801 1.23828 -6.13184 1.23828zM464 32.001c8.82812 0 15.999 7.1709 16 15.999v268.953l-213.516 -185.047c-3.01562 -2.60938 -6.75 -3.90625 -10.4844 -3.90625s-7.46875 1.29785 -10.4844 3.90625l-213.516 185.047v-268.952
c0 -8.8291 7.17188 -16 16 -16h416z" />
    <glyph glyph-name="001-play-button" unicode="&#xf100;" 
d="M483.667 309.173c18.5352 -35.9443 28.3311 -76.4609 28.3311 -117.172c0 -141.158 -114.841 -255.999 -255.999 -255.999s-255.999 114.841 -255.999 255.999s114.841 255.999 255.999 255.999c5.75293 0 10.4189 -4.66602 10.4189 -10.4189
s-4.66602 -10.4189 -10.4189 -10.4189c-129.667 0 -235.161 -105.492 -235.161 -235.161s105.494 -235.163 235.161 -235.163c129.668 0 235.161 105.494 235.161 235.161c0 37.9395 -8.75195 74.1475 -26.0127 107.622c-16.4746 31.9473 -40.498 60.1582 -69.4746 81.5869
c-4.62695 3.42285 -5.60547 9.94727 -2.18359 14.5732c3.42285 4.62598 9.94531 5.60352 14.5732 2.18262c31.5312 -23.3174 57.6768 -54.0215 75.6045 -88.791zM190.494 310.869c3.25781 1.85254 7.25488 1.81055 10.4785 -0.104492l184.46 -109.809
c3.09961 -1.8457 5.02344 -5.16309 5.08789 -8.76953c0.0634766 -3.60645 -1.74219 -6.98926 -4.77441 -8.94336l-127.573 -82.1943c-4.83789 -3.11816 -11.2832 -1.72266 -14.4023 3.11523c-3.11719 4.83691 -1.7207 11.2842 3.11523 14.4014l113.437 73.085
l-154.26 91.832v-210.325c0 -5.75488 -4.66602 -10.4189 -10.4199 -10.4189c-5.75293 0 -10.4189 4.66406 -10.4189 10.4189v228.654c0 3.74512 2.0127 7.2041 5.27051 9.05762z" />
    <glyph glyph-name="040-calendar" unicode="&#xf127;" 
d="M453.332 -64h-394.664c-32.3633 0 -58.668 26.3047 -58.668 58.668v352c0 32.3633 26.3047 58.6641 58.668 58.6641h394.664c32.3633 0 58.668 -26.3008 58.668 -58.6641v-352c0 -32.3633 -26.3047 -58.668 -58.668 -58.668zM58.668 373.332
c-14.6992 0 -26.668 -11.9648 -26.668 -26.6641v-352c0 -14.6992 11.9688 -26.668 26.668 -26.668h394.664c14.6992 0 26.668 11.9688 26.668 26.668v352c0 14.6992 -11.9688 26.6641 -26.668 26.6641h-394.664zM58.668 373.332zM496 245.332h-480
c-8.83203 0 -16 7.16797 -16 16s7.16797 16 16 16h480c8.83203 0 16 -7.16797 16 -16s-7.16797 -16 -16 -16zM496 245.332zM122.668 320c-8.83203 0 -16 7.16797 -16 16v96c0 8.83203 7.16797 16 16 16s16 -7.16797 16 -16v-96c0 -8.83203 -7.16797 -16 -16 -16z
M122.668 320zM389.332 320c-8.83203 0 -16 7.16797 -16 16v96c0 8.83203 7.16797 16 16 16s16 -7.16797 16 -16v-96c0 -8.83203 -7.16797 -16 -16 -16zM389.332 320z" />
    <glyph glyph-name="021-alarm" unicode="&#xf114;" 
d="M256.309 414.609c129.226 0 234.358 -105.134 234.357 -234.358c0 -129.224 -105.132 -234.357 -234.357 -234.357c-129.225 0 -234.357 105.133 -234.357 234.357s105.134 234.358 234.357 234.358zM256.309 -17.0049c108.77 0 197.257 88.4932 197.257 197.256
s-88.4873 197.256 -197.257 197.256c-108.769 0 -197.256 -88.4873 -197.256 -197.256s88.4873 -197.256 197.256 -197.256zM346.589 192c10.2471 0 18.5508 -8.30469 18.5508 -18.5508s-8.29883 -18.5508 -18.5508 -18.5508h-92.7539
c-10.2461 0 -18.5508 8.30469 -18.5508 18.5508v128c0 10.2461 8.30469 18.5508 18.5508 18.5508s18.5508 -8.30469 18.5508 -18.5508v-109.449h74.2031zM125.273 28.8457c7.90234 -6.52246 9.02734 -18.21 2.50977 -26.1191l-49.4688 -59.9805
c-3.67383 -4.44629 -8.97852 -6.74609 -14.3213 -6.74609c-4.15527 0 -8.33496 1.39062 -11.792 4.24219c-7.90234 6.52246 -9.02832 18.21 -2.50977 26.1191l49.4688 59.9805c6.52246 7.89648 18.21 9.02246 26.1133 2.50391zM462.933 -33.6387
c6.51855 -7.90234 5.39258 -19.5957 -2.50391 -26.1191c-3.46289 -2.85156 -7.64258 -4.24219 -11.7979 -4.24219c-5.34863 0 -10.6602 2.2998 -14.3213 6.74609l-49.4688 59.9805c-6.51758 7.90234 -5.3916 19.5957 2.50391 26.1191
c7.9082 6.51855 19.6084 5.39258 26.1191 -2.50391zM99.2461 448c38.9746 0 74.2959 -23.3115 89.9775 -59.3877l-34.0215 -14.7969c-9.79492 22.5264 -31.7588 37.083 -55.9551 37.083c-33.7559 0 -61.2168 -27.4619 -61.2168 -61.2178
c0 -22.5137 12.6016 -43.2656 32.8838 -54.1426l-17.543 -32.6934c-32.3457 17.3516 -52.4434 50.6309 -52.4434 86.8359c0 54.2119 44.1074 98.3193 98.3184 98.3193zM412.754 448c54.2168 0 98.3184 -44.1074 98.3184 -98.3193
c0 -35.8086 -19.5586 -68.8105 -51.0391 -86.1309l-17.8896 32.5068c19.9307 10.957 31.8213 31.0039 31.8213 53.624c0 33.7559 -27.4609 61.2178 -61.2168 61.2178c-24.9512 0 -47.082 -14.8652 -56.3818 -37.8682l-34.3994 13.9004
c14.9951 37.1016 50.625 61.0693 90.7871 61.0693z" />
    <glyph glyph-name="050-play-1" unicode="&#xf131;" 
d="M409.189 200.661c5.00391 -5.00293 5.00391 -13.1123 0.000976562 -18.1152l-57.6543 -57.6533l-176.176 -175.536c-8.46191 -8.73145 -19.5957 -13.3564 -31.165 -13.3564c-5.66309 0 -11.4287 1.1084 -17.0332 3.37598
c-17.0723 6.91211 -28.1035 23.1895 -28.1035 41.4785v422.151c0 18.7051 10.6914 34.6621 27.9102 41.6377c17.0791 6.91895 35.6875 2.97363 48.5518 -10.2998l137.585 -137.587c5.00391 -5.00293 5.00391 -13.1133 0 -18.1162
c-5.00293 -5.00293 -13.1123 -5.00293 -18.1152 0l-137.728 137.728c-5.66895 5.84863 -13.3506 7.48926 -20.6719 4.52344c-7.45703 -3.01855 -11.9092 -9.70605 -11.9092 -17.8857v-422.151c0 -9.46191 6.25195 -15.3545 12.1006 -17.7314
c2.73535 -1.10254 12.293 -4.08789 20.3389 4.2207l233.952 233.317c5.00293 5.00293 13.1133 5.00293 18.1162 0z" />
    <glyph glyph-name="019-call" unicode="&#xf112;" 
d="M502.044 40.8779c9.92578 -6.61719 12.9062 -19.8623 6.77051 -30.0928l-26.8984 -44.835c-7.13867 -12.1172 -18.666 -21.0244 -32.1934 -24.875c-44.7021 -12.2617 -143.306 -14.7422 -301.344 143.296s-155.565 256.65 -143.305 301.353
c3.85156 13.5273 12.7588 25.0547 24.875 32.1934l44.8359 26.8984c10.2295 6.13477 23.4756 3.1543 30.0928 -6.77148l38.876 -58.3154l32.5996 -48.9043c6.47949 -9.73828 4.35449 -22.8252 -4.87207 -30.0137l-40.1387 -31.2227
c-8.70996 -6.70605 -11.2129 -18.7705 -5.88867 -28.3887c11.7852 -21.1855 22.9521 -46.167 78.2295 -101.516s80.3301 -66.4443 101.516 -78.2295c9.61816 -5.32422 21.6826 -2.82129 28.3896 5.88867l31.2227 40.1387c7.18945 9.22754 20.2764 11.3516 30.0137 4.87207
l50.459 -33.6318zM291.306 368.554c-4.87598 0 -8.82812 3.95312 -8.82715 8.82715c0 4.87598 3.95312 8.82812 8.82812 8.82812c92.5879 -0.102539 167.62 -75.1348 167.722 -167.723c0 -4.87598 -3.95312 -8.82715 -8.82715 -8.82715
c-4.87598 0 -8.82812 3.95215 -8.82812 8.82715c-0.0917969 82.8428 -67.2266 149.976 -150.067 150.067zM291.306 315.59c-4.87598 0 -8.82812 3.95215 -8.82812 8.82715c0 4.87598 3.95312 8.82812 8.82812 8.82812c63.3496 -0.0732422 114.685 -51.4092 114.758 -114.758
c0 -4.87598 -3.95312 -8.82715 -8.82812 -8.82715c-4.87598 0 -8.82812 3.95215 -8.82812 8.82715c-0.0625 53.6016 -43.499 97.0391 -97.1016 97.1025zM291.306 262.624c-4.87598 0 -8.82812 3.95215 -8.82715 8.82715c0 4.87598 3.95312 8.82812 8.82812 8.82812
c34.1104 -0.0390625 61.7529 -27.6816 61.792 -61.793c0 -4.87598 -3.95312 -8.82715 -8.82812 -8.82715s-8.82715 3.95215 -8.82715 8.82715c-0.0292969 24.3652 -19.7734 44.1084 -44.1377 44.1377z" />
    <glyph glyph-name="053-down-arrow-2" unicode="&#xf134;" 
d="M390.595 166.233c3.20605 -5.58105 3.16406 -12.4424 -0.0830078 -17.9922l-119.021 -203.365c-3.22461 -5.49121 -9.12207 -8.87598 -15.4922 -8.87598c-6.37109 0 -12.2676 3.37891 -15.4863 8.87598l-119.027 203.365
c-3.24805 5.55078 -3.27832 12.4111 -0.078125 17.9922s9.13281 9.01953 15.5625 9.01953h238.058c6.42969 0 12.3623 -3.43848 15.5684 -9.01953zM255.997 -10.5273l87.7275 149.893h-175.462zM255.997 448c9.91113 0 17.9443 -8.0332 17.9443 -17.9443v-272.748
c0 -9.91016 -8.0332 -17.9434 -17.9443 -17.9434s-17.9443 8.0332 -17.9443 17.9434v272.748c0 9.91113 8.0332 17.9443 17.9443 17.9443z" />
    <glyph glyph-name="028-money-bag" unicode="&#xf11b;" 
d="M310.738 115.699c2.125 -4.80469 3.18848 -10.5664 3.18848 -17.2861c0 -7.82031 -1.37305 -14.4766 -4.11621 -19.9609c-2.74414 -5.48926 -6.41309 -9.98047 -11.0088 -13.4795c-4.59766 -3.49805 -9.87695 -6.14062 -15.8447 -7.92188
c-5.96777 -1.78223 -12.2441 -2.81055 -18.8291 -3.08691v-23.8711h-14.1992v24.0771c-9.46484 0.823242 -18.8291 2.74219 -28.0889 5.76172c-9.25977 3.0166 -17.5938 6.99609 -25.002 11.9355l14.8164 29.4268c0.545898 -0.6875 2.02148 -1.82031 4.42383 -3.39551
c2.39746 -1.5791 5.45312 -3.22559 9.15723 -4.93945c3.7041 -1.7168 7.88672 -3.36426 12.5527 -4.93945c4.66211 -1.57812 9.46582 -2.71094 14.4053 -3.39551v27.3691l-9.87695 2.88086c-6.72461 2.05762 -12.5537 4.28613 -17.4922 6.6875
c-4.93945 2.39941 -9.02246 5.17773 -12.2441 8.33594c-3.22461 3.15332 -5.62695 6.78906 -7.20215 10.9053c-1.5791 4.11621 -2.36719 8.91602 -2.36719 14.4053c0 7.13184 1.23535 13.4785 3.7041 19.0352c2.46875 5.55566 5.79297 10.3223 9.98047 14.3018
c4.18262 3.97754 9.12207 7.09863 14.8154 9.36328c5.69141 2.2627 11.833 3.73535 18.418 4.42383v20.7842h14.2002v-20.7842c8.91602 -0.823242 17.2852 -2.81445 25.1055 -5.96777c7.81836 -3.1582 14.6094 -6.37988 20.3721 -9.67188l-14.8164 -27.9863
c-0.412109 0.546875 -1.61426 1.44141 -3.60059 2.6748c-1.99121 1.23535 -4.52734 2.57324 -7.61426 4.0127c-3.08691 1.44043 -6.51758 2.81055 -10.2891 4.11523c-3.77539 1.30176 -7.58203 2.22852 -11.4209 2.77832v-27.9863l6.58496 -1.64551
c6.99609 -1.92188 13.3047 -4.0127 18.9316 -6.27637c5.62402 -2.26367 10.3926 -5.07715 14.3018 -8.43652c3.91016 -3.36328 6.92578 -7.44336 9.05469 -12.2432zM252.193 147.183v25.3115c-9.60547 -0.823242 -14.4053 -4.80371 -14.4053 -11.9355
c0 -3.43066 1.19922 -6.14062 3.60059 -8.12793c2.39941 -1.99023 6 -3.73926 10.8047 -5.24805zM261.865 84.2129c10.5615 0.412109 15.8447 4.04492 15.8447 10.9072c0 3.56445 -1.44043 6.34375 -4.32129 8.33398c-2.88086 1.9873 -6.72363 3.80664 -11.5234 5.45312
v-24.6943zM331.504 290.18c41.3799 -24.6562 69.165 -69.8496 69.166 -121.418v-180.115c0 -29.0293 -23.6162 -52.6465 -52.6445 -52.6465h-184.051c-29.0283 0 -52.6445 23.6172 -52.6445 52.6465v180.116c0 51.5674 27.7842 96.7617 69.1641 121.417v70.2607h22.4932
l-31.7188 87.5596h169.46l-31.7178 -87.5596h22.4932v-70.2607zM297.955 418h-83.9121l20.8506 -57.5596h6.10547v32.25h30v-32.25h6.10449zM210.494 330.44v-20.4404h42.0742h6.86328h42.0732v20.4404h-3.36035h-84.291h-3.35938zM370.669 -11.3535v180.115
c0 61.3369 -49.9014 111.238 -111.238 111.238h-6.86328c-61.3369 0 -111.238 -49.9014 -111.238 -111.238v-180.115c0 -12.4873 10.1592 -22.6465 22.6445 -22.6465h184.051c12.4854 0 22.6445 10.1592 22.6445 22.6465z" />
    <glyph glyph-name="054-down" unicode="&#xf135;" 
d="M232 64.5693v335.431c0 13.248 10.752 24 24 24s24 -10.752 24 -24v-335.431l-24 -24zM272.971 -32.9707c-3.87988 -3.88086 -11.4834 -7.03027 -16.9707 -7.03027s-13.0908 3.14941 -16.9707 7.03027l-144 144c-3.88086 3.87988 -7.03027 11.4834 -7.03027 16.9707
c0 13.248 10.7529 24.001 24.001 24.001c5.4873 0 13.0908 -3.14941 16.9707 -7.03027l127.029 -127.029l127.029 127.029c3.87988 3.88086 11.4834 7.03027 16.9707 7.03027c13.248 0 24.001 -10.7529 24.001 -24.001c0 -5.4873 -3.14941 -13.0908 -7.03027 -16.9707z" />
    <glyph glyph-name="041-like" unicode="&#xf128;" 
d="M437.02 373.02c48.3516 -48.3525 74.9805 -112.64 74.9805 -181.02s-26.6289 -132.667 -74.9805 -181.02c-48.3525 -48.3516 -112.64 -74.9805 -181.02 -74.9805s-132.667 26.6289 -181.02 74.9805c-48.3516 48.3525 -74.9805 112.64 -74.9805 181.02
s26.6289 132.667 74.9805 181.02c48.3525 48.3516 112.64 74.9805 181.02 74.9805s132.667 -26.6289 181.02 -74.9805zM256 -34c124.617 0 226 101.383 226 226s-101.383 226 -226 226s-226 -101.383 -226 -226s101.383 -226 226 -226zM395.286 287.758
c16.582 -16.582 25.7139 -38.6289 25.7139 -62.0781c0 -23.4512 -9.13184 -45.4971 -25.7139 -62.0781l-128.68 -128.68c-2.92871 -2.92969 -6.76855 -4.39355 -10.6064 -4.39355s-7.67676 1.46484 -10.6064 4.39355l-128.68 128.68
c-16.582 16.5811 -25.7139 38.6289 -25.7139 62.0781s9.13184 45.4961 25.7139 62.0781c16.5811 16.582 38.6279 25.7139 62.0781 25.7139c23.4512 0 45.4971 -9.13184 62.0791 -25.7139l15.1289 -15.1289l15.1289 15.1289c16.582 16.582 38.6289 25.7139 62.0791 25.7139
s45.4961 -9.13184 62.0781 -25.7139zM374.073 184.814c10.916 10.916 16.9268 25.4287 16.9268 40.8652s-6.01074 29.9492 -16.9258 40.8652c-22.5342 22.5342 -59.1992 22.5342 -81.7314 0l-25.7354 -25.7363c-5.8584 -5.85742 -15.3564 -5.85742 -21.2139 0
l-25.7354 25.7363c-11.2676 11.2666 -26.0664 16.9004 -40.8662 16.9004c-14.7988 0 -29.5977 -5.63379 -40.8652 -16.9004c-10.916 -10.915 -16.9268 -25.4277 -16.9268 -40.8652c0 -15.4365 6.01074 -29.9492 16.9268 -40.8643l118.073 -118.073z" />
    <glyph glyph-name="055-down-arrow-3" unicode="&#xf136;" 
d="M349.089 202.101c7.10645 -7.32715 6.9209 -19.0371 -0.407227 -26.1436l-80.1211 -77.6621c-3.58008 -3.47559 -8.22754 -5.21387 -12.8682 -5.21387c-4.6416 0 -9.28223 1.73828 -12.8691 5.21387l-80.1211 77.6621
c-7.33398 7.10645 -7.5127 18.8164 -0.407227 26.1436c7.1123 7.32812 18.8164 7.50781 26.1445 0.407227l67.2529 -65.1875l67.2529 65.1875c7.32812 7.10645 19.0312 6.92676 26.1436 -0.407227zM255.692 324.2c10.2119 0 18.4883 -8.27734 18.4893 -18.4893v-189.827
c0 -10.2129 -8.27051 -18.4902 -18.4893 -18.4902c-10.2139 0 -18.4902 8.27832 -18.4902 18.4902v189.826c0 10.2129 8.27832 18.4902 18.4902 18.4902zM506.583 205.072c7.22266 -7.2168 7.22266 -18.9277 -0.000976562 -26.1455l-237.51 -237.51
c-3.6123 -3.61133 -8.33887 -5.41699 -13.0723 -5.41699s-9.4668 1.80566 -13.0732 5.41797l-237.51 237.51c-7.22266 7.2168 -7.22266 18.9277 0 26.1445l237.511 237.511c7.2168 7.22266 18.9209 7.22266 26.1445 0zM256 -19.3662l211.366 211.366l-211.366 211.36
l-211.36 -211.36z" />
    <glyph glyph-name="011-diamond-1" unicode="&#xf10a;" 
d="M506.135 226.037c2.60449 -2.94727 3.23926 -7.14648 1.62305 -10.7324c-0.609375 -1.35059 -1.49805 -2.51953 -2.57715 -3.45312c-0.0195312 -0.0234375 -0.0371094 -0.0498047 -0.0576172 -0.0722656l-241.642 -272.415
c-1.89844 -2.13965 -4.62109 -3.36426 -7.48145 -3.36426s-5.58301 1.22363 -7.48145 3.36426l-241.642 272.415c-0.0205078 0.0234375 -0.0371094 0.0498047 -0.0576172 0.0722656c-1.08008 0.933594 -1.96875 2.10156 -2.57715 3.45312
c-1.61621 3.58594 -0.981445 7.78516 1.62305 10.7324l87.1982 98.667c1.89746 2.14746 4.62695 3.37793 7.49219 3.37793h310.89c2.86523 0 5.59473 -1.23047 7.49316 -3.37793zM393.713 308.083h-115.661l71.2207 -71.6436zM328.054 229.415l-72.0537 72.4834
l-72.0537 -72.4834h144.107zM233.948 308.082h-115.661l44.4404 -71.6436zM99.0039 301.226l-63.4629 -71.8105h108.008zM35.709 209.415l199.814 -225.261l-81.6367 225.261h-118.178zM276.848 -15.4277l199.443 224.843h-301.131l80.9307 -223.316l59.0352 159.777
c1.91309 5.18066 7.66309 7.83008 12.8457 5.91406c5.18066 -1.91406 7.82812 -7.66504 5.91406 -12.8457zM368.451 229.415h108.008l-63.4629 71.8105zM256 448c5.52246 0 10 -4.47656 10 -10v-51.5127c0 -5.52344 -4.47754 -10 -10 -10s-10 4.47656 -10 10v51.5127
c0 5.52344 4.47754 10 10 10zM347.062 408.476c3.90527 -3.9043 3.90527 -10.2363 0 -14.1416l-36.4258 -36.4248c-1.95312 -1.95215 -4.51172 -2.92871 -7.07031 -2.92871c-2.55957 0 -5.11816 0.975586 -7.07227 2.92871c-3.90527 3.90527 -3.90527 10.2373 0 14.1416
l36.4258 36.4248c3.9082 3.90527 10.2383 3.90527 14.1426 0zM213.558 372.051c3.90527 -3.9043 3.90527 -10.2363 0 -14.1416c-1.95215 -1.95215 -4.51172 -2.92871 -7.07031 -2.92871c-2.55957 0 -5.11816 0.975586 -7.07129 2.92871l-36.4258 36.4248
c-3.90527 3.90527 -3.90527 10.2373 0 14.1416c3.90918 3.90527 10.2383 3.90527 14.1426 0zM327.43 179.64c0 5.52344 4.47754 10 10 10c5.52344 0 10 -4.47656 10 -10c0 -5.52246 -4.47656 -10 -10 -10c-5.52246 0 -10 4.47754 -10 10z" />
    <glyph glyph-name="017-replay-arrow" unicode="&#xf110;" 
d="M256 345.6c112.64 0 204.8 -92.1592 204.8 -204.8c0 -112.64 -92.1602 -204.8 -204.8 -204.8s-204.8 92.1602 -204.8 204.8h51.2002c0 -84.4795 69.1191 -153.6 153.6 -153.6s153.6 69.1201 153.6 153.6c0 84.4805 -69.1191 153.601 -153.6 153.601v-102.4l-128 128
l128 128v-102.4z" />
    <glyph glyph-name="005-left-quote" unicode="&#xf104;" 
d="M405.034 238.194c59.5547 -3.42969 106.961 -52.9609 106.961 -113.359c0 -62.6094 -50.9375 -113.539 -113.547 -113.539c-61.0078 0 -108.75 47.5088 -113.516 112.961c-8.13281 111.469 48.0703 202.453 98.6719 246.484
c3.04688 2.65625 7.60938 2.60938 10.625 -0.100586c4.51562 -4.09473 7.60156 -7.23438 14.3594 -14.126c5.14062 -5.22656 12.4688 -12.6953 24.3047 -24.5312c2.72656 -2.72656 3.125 -7.01562 0.929688 -10.1953c-29.0312 -42.1406 -29.8203 -72.4453 -28.7891 -83.5938
zM398.448 27.2959c53.7891 0 97.5469 43.7578 97.5469 97.54c0 53.7881 -43.7578 97.5459 -97.5469 97.5459c-2.96875 0 -5.80469 1.77344 -7.1875 4.40625c-2.91406 5.54785 -9.5625 44.2344 25.6797 98.5312c-9.21875 9.25098 -15.3125 15.4541 -19.7656 19.9854
c-3.69531 3.76562 -6.20312 6.31152 -8.39844 8.47559c-22.5156 -21.5625 -97.0391 -102.992 -87.8906 -228.359v-0.0078125c4.14844 -56.8516 45.1719 -98.1172 97.5625 -98.1172zM120.909 238.194c59.5625 -3.41406 106.969 -52.9531 106.969 -113.358
c0 -62.6104 -50.9375 -113.54 -113.547 -113.54c-61.0078 0 -108.758 47.5088 -113.539 112.953v0.0078125c-8.11719 111.492 48.0938 202.461 98.6953 246.492c3.04688 2.64062 7.60938 2.60156 10.625 -0.108398c4.51562 -4.10156 7.60938 -7.25098 14.3906 -14.1572
c5.13281 -5.22656 12.4531 -12.6875 24.2656 -24.5c2.72656 -2.72656 3.11719 -7.01562 0.929688 -10.1953c-29.0625 -42.1953 -29.8281 -72.4766 -28.7891 -83.5938zM114.331 27.2959c53.7891 0 97.5469 43.7578 97.5469 97.5391
c0 53.7891 -43.7578 97.5469 -97.5469 97.5469c-2.96875 0 -5.8125 1.78125 -7.19531 4.41406c-2.91406 5.54004 -9.5625 44.2188 25.6797 98.5234c-9.20312 9.23438 -15.2891 15.4297 -19.7344 19.9609c-3.70312 3.77344 -6.21875 6.33594 -8.42188 8.5
c-22.5156 -21.5547 -97.0391 -102.969 -87.9141 -228.367v0.0078125c4.15625 -56.8594 45.2031 -98.125 97.5859 -98.125z" />
    <glyph glyph-name="023-speech-bubble" unicode="&#xf116;" 
d="M256.013 448c141.495 0 255.987 -114.418 255.987 -255.794c0 -197.73 -216.693 -321.906 -387.544 -219.471l-104.728 -34.5664c-11.5615 -3.81738 -22.623 7.04395 -19.0352 18.6533l33.3447 107.906c-55.915 97.0332 -43.4014 224.05 40.9648 308.352
c48.3496 48.3125 112.633 74.9199 181.01 74.9199zM134.476 1.79004c149.542 -95.4932 347.525 12.1826 347.526 190.416c0 124.516 -101.378 225.818 -225.989 225.818c-176.339 0 -284.581 -193.914 -192.888 -343.535c2.25 -3.67188 2.81055 -8.13574 1.54004 -12.249
l-26.7285 -86.4932l83.7588 27.6445c4.28027 1.41309 8.97461 0.828125 12.7803 -1.60156zM376.007 267.146c8.2832 0 14.999 -6.71094 14.999 -14.9883c0 -8.27832 -6.71484 -14.9883 -14.999 -14.9883h-179.991c-8.2832 0 -14.999 6.70996 -14.999 14.9883
c0 8.27734 6.71582 14.9883 14.999 14.9883h179.991zM316.01 147.243c8.2832 0 14.999 -6.70996 14.999 -14.9883s-6.71484 -14.9883 -14.999 -14.9883h-179.991c-8.2832 0 -14.999 6.70996 -14.999 14.9883s6.71582 14.9883 14.999 14.9883h179.991zM376.007 207.194
c8.2832 0 14.999 -6.70996 14.999 -14.9883s-6.71484 -14.9883 -14.999 -14.9883h-239.988c-8.2832 0 -14.999 6.70996 -14.999 14.9883s6.71582 14.9883 14.999 14.9883h239.988zM361.008 132.255c0 8.27734 6.71582 14.9883 14.999 14.9883
c8.28418 0 14.999 -6.71094 14.999 -14.9883s-6.71484 -14.9883 -14.999 -14.9883c-8.2832 0 -14.999 6.71094 -14.999 14.9883zM121.02 251.159c0 8.27734 6.71582 14.9883 14.999 14.9883c8.28418 0 14.999 -6.71094 14.999 -14.9883s-6.71484 -14.9883 -14.999 -14.9883
c-8.2832 0 -14.999 6.71094 -14.999 14.9883z" />
    <glyph glyph-name="034-tag" unicode="&#xf121;" 
d="M456.883 448c30.3867 0 55.1133 -24.7227 55.1172 -55.1094l-0.00390625 -194.309c0 -3.97656 -1.58203 -7.79297 -4.39453 -10.6055l-235.848 -235.852c-10.3789 -10.3789 -24.2188 -16.0977 -38.9727 -16.0977h-0.00390625
c-14.75 0.00390625 -28.5898 5.71875 -38.9648 16.0938l-177.699 177.695c-21.4844 21.4844 -21.4844 56.4492 0 77.9414l235.855 235.848c2.8125 2.8125 6.62891 4.39453 10.6055 4.39453h194.309zM481.996 204.793l0.00390625 188.094
c0 13.8477 -11.2695 25.1133 -25.1172 25.1133h-188.098l-231.461 -231.453c-9.78906 -9.79297 -9.78906 -25.7305 0 -35.5195l177.699 -177.695c4.71094 -4.71094 11.0156 -7.30469 17.7578 -7.30469c6.73828 0 13.0469 2.59375 17.7578 7.30859zM481.996 204.793z
M379.785 362.922c12.5898 0 24.4258 -4.90625 33.3281 -13.8086c8.89844 -8.89844 13.8008 -20.7344 13.8008 -33.3242s-4.90234 -24.4258 -13.8047 -33.3281s-20.7383 -13.8047 -33.3242 -13.8047c-12.5898 0 -24.4258 4.90234 -33.3281 13.8047
s-13.8047 20.7383 -13.8047 33.3281s4.90234 24.4258 13.8047 33.3242c8.90234 8.90234 20.7383 13.8086 33.3281 13.8086zM391.898 303.676c3.23438 3.23438 5.01953 7.53906 5.01953 12.1133s-1.78125 8.87891 -5.01953 12.1133
c-3.23828 3.23828 -7.53906 5.01953 -12.1133 5.01953s-8.87891 -1.78125 -12.1133 -5.01953c-3.23828 -3.23438 -5.01953 -7.53906 -5.01953 -12.1133s1.78125 -8.87891 5.01953 -12.1133c3.23438 -3.23828 7.53516 -5.01953 12.1133 -5.01953
c4.57422 0 8.87891 1.78125 12.1133 5.01953zM391.898 303.676z" />
    <glyph glyph-name="025-agent" unicode="&#xf118;" 
d="M442.619 203.5h69.3809v-40h-512v40h69.627c3.98926 18.9805 13.0684 59.082 26.3643 99.7188c27.2959 83.4258 56.5322 122.281 92.0088 122.281c28.751 0 57.9336 -19.4736 72.8223 -31.124c26.1396 20.9336 47.1504 31.124 64.1777 31.124
c21.1885 0 40.7266 -14.6143 58.0732 -43.4365c11.5664 -19.2197 22.8232 -45.5967 33.4521 -78.3975c13.3193 -41.0977 22.291 -81.6494 26.0938 -100.166zM110.557 203.5h291.168c-4.31543 20.0146 -12.3594 54.2861 -23.3555 88.1562
c-24.0977 74.2305 -45.4473 93.8438 -53.3691 93.8438c-1.19336 0 -12.4688 -0.660156 -40.6465 -23.5293c-16.1162 -13.0811 -28.8291 -26.2227 -28.9561 -26.3535l-13.8838 -14.3975l-28.793 27.7666l13.8828 14.3965c0.173828 0.180664 1.52051 1.57324 3.78711 3.81348
c-13.0029 9.22559 -29.8447 18.3037 -42.3906 18.3037c-7.95508 0 -29.4775 -19.7959 -53.9912 -94.7188c-10.9395 -33.4346 -19.0127 -67.126 -23.4521 -87.2812zM359 134.5c48.5234 0 87.999 -39.4766 87.999 -88s-39.4766 -88 -88 -88s-88 39.4766 -88 88
c0 3.6582 0.227539 7.26367 0.664062 10.8066l-19.7734 9.8877l-21.4854 -10.4814c0.388672 -3.35156 0.595703 -6.75879 0.595703 -10.2129c0 -48.5234 -39.4766 -88 -88 -88s-88 39.4766 -88 88s39.4766 88 88 88c30.8135 0 57.9736 -15.9219 73.6992 -39.9678
l35.4111 17.2734l33.5273 -16.7637c15.7744 23.7598 42.7676 39.458 73.3623 39.458zM143 -1.5c26.4668 0 48 21.5332 48 48s-21.5332 48 -48 48s-48 -21.5332 -48 -48s21.5332 -48 48 -48zM359 -1.5c26.4668 0 48 21.5332 48 48s-21.5332 48 -48 48s-48 -21.5332 -48 -48
s21.5332 -48 48 -48z" />
    <glyph glyph-name="038-pdf" unicode="&#xf125;" 
d="M444.875 338.208c2 -2 3.125 -4.70801 3.125 -7.54102v-352c0 -23.5322 -19.1348 -42.667 -42.666 -42.667h-298.667c-23.5322 0 -42.667 19.1348 -42.667 42.666v426.667c0 23.5322 19.1348 42.667 42.666 42.667h224c2.83398 0 5.54199 -1.125 7.54199 -3.125z
M341.333 411.583v-48.917c0 -11.7598 9.57324 -21.333 21.333 -21.333h48.917zM426.667 -21.333v341.333h-64c-23.5322 0 -42.667 19.1348 -42.667 42.666v64h-213.333c-11.7598 0 -21.333 -9.57324 -21.333 -21.333v-426.666c0 -11.7598 9.57324 -21.333 21.333 -21.333
h298.667c11.7598 0 21.333 9.57324 21.333 21.333zM310.385 134.865c15.1055 2.53125 26.6465 3.80176 30.9482 3.80273c13.8535 0 42.667 0 42.667 -25.2188c0 -12.8232 -5.55176 -28.1152 -32 -28.1152c-9.55176 0 -29.2715 13.1357 -47.125 26.8652
c-22.2812 -4.15625 -50.5107 -10.792 -73.2188 -19.75c-21.875 -44.625 -51.8232 -71.1152 -71.6562 -71.1152c-15.3848 0 -32 9.46777 -32 24.7598c0 21.0625 22.5 31.7295 56.5635 47.8545c7.46875 3.54199 15.5205 7.35352 24 11.5938
c2.35352 1.17676 4.79199 2.31152 7.30176 3.42676c3.08398 6.89648 6 14.3545 8.6875 22.4062c5.58301 16.7812 10.5527 31.667 14.7812 44.5732c-17.2812 22.458 -26 41.7803 -26 57.6982c0 36.1045 17.4062 43.6875 32 43.6875c19.208 0 32 -7.26074 32 -42.667
c0 -8.33398 -4.30176 -23.9688 -14.1152 -54.292c6.29102 -7.5 13.5312 -15.375 21.6562 -23.5c6.25 -6.25 15.6348 -14.2393 25.5098 -22.0098zM160 42.667c6.05176 0 21.8965 10.7695 37.917 34c-1.42676 -0.676758 -2.83398 -1.33398 -4.21875 -1.99023
c-21.8135 -10.333 -44.3652 -21.0195 -44.3652 -28.583c0.448242 -0.551758 4.57324 -3.42676 10.667 -3.42676zM234.667 233.646c0 -8.34473 4.46777 -19.3965 12.8438 -32.293c5.49023 17.5635 8.49023 28.8135 8.49023 33.3135c0 21.333 -3.125 21.333 -10.667 21.333
c-3.72852 0 -10.667 0 -10.667 -22.3535zM242.844 119c13.375 4.24023 27.3643 7.79199 40.5127 10.6572c-6.60547 5.63477 -11.5635 10.1348 -13.5635 12.1348c-5.11523 5.11426 -9.88574 10.1045 -14.3125 14.9795c-3.17773 -9.60449 -6.74023 -20.2715 -10.6982 -32.1465
c-0.625 -1.89648 -1.27148 -3.77148 -1.93848 -5.625zM362.667 113.448c-1.10352 2.34375 -5.57324 3.88477 -21.334 3.88477c-1.25 0 -3.46875 -0.166992 -6.47949 -0.5c8.29297 -5.64648 15.0117 -9.60449 17.918 -10.2295
c9.89551 0.0634766 9.89551 2.05273 9.89551 6.84473z" />
    <glyph glyph-name="029-umbrella" unicode="&#xf11c;" 
d="M508.215 205.973c3.02539 -5.36914 3.78516 -10.3486 3.78516 -13.9727c0 -8.28418 -6.71582 -15 -15 -15c-6.1084 0 -15.6426 4.65234 -16.8662 14.1289c-0.115234 0.883789 -0.248047 1.75977 -0.373047 2.63965c-6.65918 5.21973 -26.3838 13.2314 -57.7607 13.2314
c-36.623 0 -57.3887 -10.9189 -60.0107 -15.5674c-0.285156 -7.50684 -6.24219 -14.4668 -15.6953 -14.4668c-7.96289 0 -14.5967 6.2627 -14.9717 14.3008c-0.00292969 0.0517578 -0.00585938 0.101562 -0.0078125 0.152344
c-5.21387 4.76758 -25.4258 13.1572 -59.3145 15.1455v-210.564c0 -16.542 13.458 -30 30 -30s30 13.458 30 30v15c0 8.28418 6.71582 15 15 15s15 -6.71582 15 -15v-15c0 -33.084 -26.916 -60 -60 -60s-60 26.916 -60 60v210.576
c-34.8623 -1.9834 -55.8525 -10.5352 -61.3301 -15.3916c-0.430664 -8.23438 -7.4248 -14.582 -15.6758 -14.2002c-9.2168 0.441406 -14.708 7.20605 -14.9834 14.4492c-2.62207 4.64746 -23.3877 15.5664 -60.0107 15.5664c-31.376 0 -51.1006 -8.01172 -57.7607 -13.2314
c-0.133789 -0.948242 -0.277344 -1.89355 -0.399414 -2.84668c-1.27539 -9.94434 -11.167 -13.9219 -16.8398 -13.9219c-8.28418 0 -15 6.71582 -15 15c0 3.625 0.759766 8.6084 3.78906 13.9785c20.2578 115.732 119.535 203.637 238.211 210.567v16.4541
c0 8.28418 6.71582 15 15 15s15 -6.71582 15 -15v-16.4561c119.085 -6.99023 216.153 -95.3516 236.215 -210.571zM153.128 225.186c5.11035 49.8477 18.6816 113.351 46.8906 154.62c-75.0078 -19.3008 -135.806 -75.8018 -159.409 -149.465
c14.3486 4.32129 31.5068 6.65918 49.3906 6.65918c20.6992 0 44.6387 -3.2334 63.1279 -11.8145zM257 237c25.9297 0 51.9717 -3.42676 71.6367 -10.6748c-10.4609 97.4512 -43.417 160.675 -71.6367 160.675c-27.2188 0 -62.5732 -60.0449 -73.625 -161.025
c22.0576 8.04883 49.9404 11.0254 73.625 11.0254zM422 237c17.9004 0 35.0723 -2.34277 49.4287 -6.66992c-23.4541 73.6279 -83.6924 130.121 -157.925 149.449c27.5059 -41.3242 40.4824 -105.187 45.4111 -154.573c18.5449 8.58887 42.4736 11.7939 63.085 11.7939z" />
    <glyph glyph-name="013-mail" unicode="&#xf10c;" 
d="M511.395 288.861c0.354492 -0.889648 0.55957 -1.83398 0.605469 -2.79102v-0.119141v-0.0849609v-341.333c0 -0.324219 -0.162109 -0.571289 -0.162109 -0.853516c-0.0576172 -0.566406 -0.168945 -1.12695 -0.333008 -1.67188
c-0.170898 -0.551758 -0.399414 -1.08398 -0.682617 -1.58789c-0.136719 -0.238281 -0.205078 -0.571289 -0.324219 -0.750977c-0.119141 -0.178711 -0.324219 -0.238281 -0.452148 -0.40918c-0.59082 -0.723633 -1.29688 -1.34277 -2.09082 -1.83496
c-0.272461 -0.207031 -0.557617 -0.397461 -0.853516 -0.571289c-1.13281 -0.552734 -2.37402 -0.844727 -3.63477 -0.853516h-494.933c-1.25391 0 -2.49414 0.279297 -3.62598 0.819336c-0.295898 0.173828 -0.581055 0.364258 -0.853516 0.571289
c-0.793945 0.492188 -1.5 1.11133 -2.09082 1.83496c-0.12793 0.170898 -0.290039 0.179688 -0.452148 0.40918c-0.162109 0.230469 -0.1875 0.512695 -0.324219 0.750977c-0.283203 0.503906 -0.512695 1.03613 -0.682617 1.58789
c-0.169922 0.556641 -0.28418 1.12793 -0.341797 1.70605c-0.0253906 0.316406 -0.162109 0.563477 -0.162109 0.853516v341.333v0.0849609v0.119141c0.0488281 0.946289 0.253906 1.87793 0.605469 2.75684c0.0771484 0.205078 0.163086 0.40918 0.256836 0.605469
c0.393555 0.879883 0.936523 1.68555 1.60352 2.38086c0.0673828 0.0625 0.138672 0.118164 0.213867 0.170898c0.411133 0.410156 0.864258 0.77832 1.34766 1.10059l72.7725 45.2266v58.4873c0 4.71289 3.82129 8.5332 8.5332 8.5332h99.4561l66.7139 41.3867
c2.75488 1.70801 6.23828 1.70801 8.99414 0l66.7129 -41.3867h99.4561c4.71191 0 8.5332 -3.82031 8.5332 -8.5332v-58.4873l72.7725 -45.1924c0.483398 -0.322266 0.936523 -0.69043 1.34766 -1.10059c0.0751953 -0.0527344 0.146484 -0.109375 0.213867 -0.170898
c0.666992 -0.695312 1.20996 -1.50098 1.60352 -2.38086c0.0947266 -0.196289 0.179688 -0.400391 0.256836 -0.605469zM435.2 318.25v-69.1201l52.6934 36.3604zM256.001 429.422l-38.8184 -24.0898h77.6533zM93.8672 388.266v-150.911l162.134 -111.787l162.133 111.787
v150.911h-324.267zM76.8008 318.225l-52.6934 -32.7344l52.6934 -36.3857v69.1201zM17.0674 269.61v-308.863l223.897 154.452zM35.9434 -46.9336h440.114l-220.057 151.766zM494.934 -39.2529v308.863l-223.897 -154.411zM264.534 191.999
c0 -4.71191 -3.82129 -8.5332 -8.5332 -8.5332c-4.71289 0 -8.53418 3.82129 -8.53418 8.5332v9.38672c-19.8516 4.08203 -34.1074 21.5459 -34.1328 41.8135c0 4.71289 3.82031 8.5332 8.5332 8.5332s8.5332 -3.82031 8.5332 -8.5332
c0 -14.1387 11.4619 -25.5996 25.6006 -25.5996s25.5996 11.4609 25.5996 25.5996s-11.4609 25.5996 -25.5996 25.5996c-20.3076 -0.0195312 -37.8145 14.2754 -41.8564 34.1768c-4.68945 23.0928 10.2295 45.6143 33.3223 50.3037v9.38672
c0 4.71191 3.82129 8.5332 8.53418 8.5332c4.71191 0 8.5332 -3.82129 8.5332 -8.5332v-9.38672c19.8516 -4.08203 34.1074 -21.5459 34.1328 -41.8135c0 -4.71289 -3.82031 -8.5332 -8.5332 -8.5332s-8.5332 3.82031 -8.5332 8.5332
c0 14.1387 -11.4609 25.5996 -25.5996 25.5996s-25.6006 -11.4609 -25.6006 -25.5996s11.4619 -25.5996 25.6006 -25.5996c20.3066 0.0195312 37.8135 -14.2754 41.8555 -34.1758c4.68945 -23.0938 -10.2295 -45.6152 -33.3223 -50.3047v-9.38672z" />
    <glyph glyph-name="039-user" unicode="&#xf126;" 
d="M437.02 117.02c48.3516 -48.3525 74.9805 -112.64 74.9805 -181.02h-40c0 119.103 -96.8975 216 -216 216s-216 -96.8975 -216 -216h-40c0 68.3799 26.6289 132.667 74.9814 181.02c27.8828 27.8828 61.0703 48.5234 97.2803 61.0186
c-38.7832 26.7109 -64.2617 71.4141 -64.2617 121.962c0 81.6074 66.3926 148 148 148s148 -66.3926 148 -148c0 -50.5479 -25.4785 -95.251 -64.2607 -121.962c36.21 -12.4951 69.3975 -33.1357 97.2803 -61.0186zM256 192c59.5508 0 108 48.4482 108 108
s-48.4492 108 -108 108s-108 -48.4482 -108 -108s48.4492 -108 108 -108z" />
    <glyph glyph-name="047-fruits" unicode="&#xf12e;" 
d="M488 128c4.41602 0 8 -3.58398 8 -8c0 -40.3115 -20.5947 -82.1943 -56.5 -114.909c-37.584 -34.2354 -85.7002 -53.0908 -135.5 -53.0908c-25.3154 0.0849609 -64.3213 9.17188 -87.0684 20.2832c-12.8887 -13.0518 -29.7188 -20.3135 -47.2529 -20.3135
c-4.9082 0.00488281 -12.7256 1.08691 -17.4512 2.41602c-0.180664 0.0507812 -0.360352 0.108398 -0.537109 0.171875l-13.3818 4.78711c-0.616211 0.223633 -1.64844 0.404297 -2.30469 0.404297c-0.655273 0 -1.68848 -0.180664 -2.30469 -0.404297l-13.3818 -4.78711
c-0.177083 -0.0638021 -0.356445 -0.121094 -0.538086 -0.171875c-4.72461 -1.3291 -12.542 -2.41113 -17.4502 -2.41602c-23.9756 -0.000976562 -46.6387 13.5576 -59.7002 36.957c-8.73047 15.7041 -17.9209 42.8789 -20.5137 60.6582l-5 33.5771
c-3.88281 26.0889 2.61719 51.1748 17.834 68.8252c13.3506 15.4844 32.2227 24.0127 53.1387 24.0127c7.8125 0 26.2197 -4.7666 34.6582 -11.1055c1.8623 -1.40332 5.19434 -3.06055 7.43652 -3.69922c2.8125 28.4209 7.9082 48.3604 15.1611 59.2402v0
c1.30566 2.01465 4.31348 3.64941 6.71387 3.64941c4.41602 0 8 -3.58398 8 -8c0 -1.36816 -0.62793 -3.39453 -1.40137 -4.52344v0c-6.35449 -9.53027 -10.084 -29.1855 -12.1914 -48.4521c0.804688 0.439453 2.05469 1.24121 2.78906 1.79004
c6.23828 4.68262 17.9189 8.50586 26.7461 10.1826v0.917969v0.0576172c0 32.6719 19.4395 77.2217 43.3906 99.4424c-10.8018 28.9004 -40.2471 54.1328 -40.5615 54.4004c-1.55859 1.32227 -2.82422 4.05469 -2.82422 6.09961c0 4.41309 3.58203 7.99707 7.99512 8
c23.1572 0 43.2471 -4.52734 60.0762 -13.4785c-2.63379 4.41211 -7.35547 11.2666 -10.541 15.2998c-5.66992 7.20898 -15.8418 17.9961 -22.7061 24.0791c-1.55859 1.32227 -2.82422 4.05469 -2.82422 6.09961c0 4.41309 3.58203 7.99707 7.99512 8
c21.7158 0 40.7598 -3.99316 56.9492 -11.9053c2.25098 16.7383 9.85059 46.249 35.4727 59.0605c0.932617 0.46582 2.53516 0.844727 3.57812 0.844727s2.64551 -0.378906 3.57812 -0.844727c25.6504 -12.8252 33.2373 -42.3877 35.4795 -59.1143
c16.2422 7.93164 35.3174 11.959 56.9424 11.959c4.41309 -0.00292969 7.99414 -3.58691 7.99414 -8c0 -2.04785 -1.26855 -4.78418 -2.83203 -6.10742c-6.8623 -6.08203 -17.0322 -16.8682 -22.7002 -24.0752c-3.19238 -4.04297 -7.9248 -10.916 -10.5615 -15.3418
c16.8613 8.9834 36.9697 13.5244 60.0996 13.5244c4.41113 -0.00488281 7.99121 -3.58887 7.99121 -8c0 -2.04492 -1.26562 -4.77734 -2.82422 -6.09961c-0.310547 -0.270508 -29.7578 -25.5 -40.5576 -54.4004c23.9512 -22.2207 43.3906 -66.7705 43.3906 -99.4424
v-0.0576172v-48h40zM278.225 168.1l33.9639 -32.8994l33.8643 32.8428l-33.9473 32.957zM296.625 128l-29.8867 28.9473l-19.9834 -19.4062c1.3125 -2.55859 3.16309 -6.83301 4.12988 -9.54102h45.7402zM357.536 156.894l-29.7959 -28.8936h59.5596zM323.585 212.152
l33.957 -32.9697l33.8701 32.8438l-33.9766 33zM329.185 294.764l28.251 -27.4346l13.5371 13.1455c-10.7891 6.11914 -29.5107 12.5215 -41.7881 14.2891zM345.953 256.177l-33.8291 32.8516l-33.8594 -32.8809l33.835 -32.8477zM266.783 267.3l28.3252 27.5
c-12.3281 -1.74121 -31.1279 -8.12891 -41.9658 -14.2578zM266.783 245l-33.9326 -32.9541l33.876 -32.8096l33.8936 32.9141zM255.242 168.085l-33.875 32.8086l-26.4766 -25.7119c14.042 -2.0293 32.9297 -12.4209 42.1602 -23.1943
c0.246094 -0.285156 0.483398 -0.578125 0.724609 -0.867188zM249.886 49.585h0.000976562c-1.4668 -9.93164 -5.42773 -25.6543 -8.8418 -35.0947c16.4727 -7.92383 44.6768 -14.415 62.9551 -14.4902c35.8496 0 70.9316 13.584 98.7832 38.251
c23.5615 20.8682 39.1816 47.332 43.7949 73.749h-191.658c0.587891 -3.92676 1.06445 -10.3359 1.06445 -14.3066c0 -4.0332 -0.492188 -10.5439 -1.09863 -14.5312zM418.457 128h13.543v13.1162zM432 163.389v9.22852l-29.0996 28.2617l-33.8691 -32.8418
l33.8428 -32.8555zM430.216 196.654c-1.19141 6.84082 -4.26562 17.6191 -6.86328 24.0596l-8.96289 -8.69141zM415.979 235.854v-0.00292969c-6.68359 11.5537 -20.7217 27.5 -31.335 35.5947l-15.7217 -15.2686l33.9844 -33zM418.96 326.47v-0.00292969
c-20.1172 -3.09375 -36.7529 -10.8672 -49.6406 -23.2041c-0.196289 -1.24609 -0.348633 -2.49121 -0.448242 -3.7373c6.65625 -3.0791 16.876 -9.07422 22.8115 -13.3818c7.01074 15.9541 18.0898 30.1982 27.2773 40.3262zM386.951 366.47v-0.0078125
c-37.1514 -5.73047 -56.2852 -26.4697 -66.1084 -45.2832c1.52539 -3.54102 2.72656 -6.83691 3.66406 -9.75c8.17773 -0.746094 21.1602 -3.38965 28.9785 -5.89941c3.71094 24.0732 20.4756 46.6201 33.4658 60.9404zM312 414.793
c-19.8096 -12.9053 -23.2715 -42.4883 -23.873 -51.8779c3.30371 -2.43066 8.33594 -6.76074 11.2324 -9.66504c3.92383 -3.94824 9.58203 -10.9336 12.6289 -15.5918c5.32812 8.16211 16.0293 19.4668 23.8867 25.2344c-0.598633 9.36719 -4.0498 38.9854 -23.875 51.9004z
M237.06 366.45c11.9805 -13.21 27.1719 -33.4111 32.3691 -55.3555c0.144531 -0.155273 0.297852 -0.307617 0.444336 -0.46582l-0.282227 -0.260742c0.365885 -1.60742 0.673828 -3.22298 0.923828 -4.84668c9.92676 3.18359 26.4385 6.04688 36.8574 6.3916
c-7.53027 19.373 -25.9883 47.6572 -70.3125 54.5371zM205.036 326.471c9.18848 -10.1279 20.2695 -24.3711 27.2812 -40.3301c5.93555 4.30762 16.1553 10.3027 22.8115 13.3818c-0.0976562 1.23926 -0.250977 2.48145 -0.445312 3.72168
c-12.8857 12.3525 -29.5078 20.1357 -49.6475 23.2266zM239.46 271.524c-10.6104 -8.0752 -24.6533 -23.9873 -31.3457 -35.5186l13.2393 -12.8242l33.9463 32.9658zM200.72 220.892c-2.65723 -6.56152 -5.78613 -17.5498 -6.9834 -24.5273l16.1328 15.666zM215.4 -3.27539
c7.94336 14.2969 16.3027 39.0352 18.6582 55.2197l5 33.5752c3.19727 21.4824 -1.95117 41.9014 -14.127 56.0225c-8.79297 10.1934 -26.8564 18.4658 -40.3184 18.4658c-0.193359 0 -0.508789 -0.00195312 -0.702148 -0.00488281
c-5.08203 0 -19.9404 -4.06152 -25.0527 -7.90039c-3.46875 -2.61328 -9.70508 -5.57812 -13.9229 -6.61621c-0.400391 -6.07617 -0.65332 -11.7354 -0.792969 -16.5684c6.74121 1.59082 10.1582 4.69727 10.2002 4.73926c1.29395 1.29297 3.82812 2.34277 5.65723 2.34277
c4.41602 0 8 -3.58398 8 -8c0 -1.8291 -1.0498 -4.36328 -2.34277 -5.65723c-1.05762 -1.05762 -10.8848 -10.3428 -29.6572 -10.3428c-18.7559 0 -28.5801 9.2666 -29.6533 10.335c-1.31445 1.29688 -2.38086 3.84766 -2.38086 5.69434c0 4.41602 3.58398 8 8 8
c1.84277 0 4.39062 -1.06348 5.6875 -2.37305l-0.0878906 0.0869141c0.188477 -0.177734 3.6748 -3.35547 10.5889 -4.90723c0.123047 4.28613 0.342773 9.88281 0.736328 16.251c-4.79395 0.930664 -11.8506 4.07227 -15.75 7.0127
c-5.1123 3.8418 -19.9707 7.90039 -25.0527 7.90039c-0.192383 0.00292969 -0.505859 0.00488281 -0.698242 0.00488281c-13.4639 0 -31.5273 -8.27441 -40.3213 -18.4697c-12.1758 -14.1221 -17.3271 -34.54 -14.127 -56.0225l5 -33.5762
c2.35547 -16.1836 10.7148 -40.9199 18.6582 -55.2158c12.4824 -22.3652 36 -33.1904 58.6006 -27l13.1094 4.68945c2.06055 0.735352 5.50781 1.33203 7.69531 1.33203s5.63477 -0.59668 7.69531 -1.33203l13.0996 -4.68652
c3.45117 -0.949219 9.15527 -1.72168 12.7344 -1.72363c18.2988 0 35.7246 10.5498 45.8662 28.7246zM428.72 16.9189c30.1699 27.4814 48.4297 61.7285 50.9736 95.0811h-16.9141c-4.63672 -30.8867 -22.3369 -61.7686 -49.3877 -85.7256
c-30.7803 -27.2617 -69.6299 -42.2744 -109.392 -42.2744c-20.0381 0.0761719 -50.9932 7.10938 -69.0967 15.6992c-1.71745 -3.65495 -3.56055 -7.24577 -5.5293 -10.7725c-0.717773 -1.28711 -1.4707 -2.53906 -2.24609 -3.76562
c20.1768 -9.39551 54.6152 -17.084 76.8721 -17.1611c45.7998 0 90.0928 17.373 124.72 48.9189zM400 88c0 4.41797 3.58203 8 8 8s8 -3.58203 8 -8s-3.58203 -8 -8 -8s-8 3.58203 -8 8zM360 48c0 4.41797 3.58203 8 8 8s8 -3.58203 8 -8s-3.58203 -8 -8 -8s-8 3.58203 -8 8
zM320 72c0 4.41797 3.58203 8 8 8s8 -3.58203 8 -8s-3.58203 -8 -8 -8s-8 3.58203 -8 8zM272 72c0 4.41797 3.58203 8 8 8s8 -3.58203 8 -8s-3.58203 -8 -8 -8s-8 3.58203 -8 8zM296 24c0 4.41797 3.58203 8 8 8s8 -3.58203 8 -8s-3.58203 -8 -8 -8s-8 3.58203 -8 8z" />
    <glyph glyph-name="024-feedback" unicode="&#xf117;" 
d="M117.333 298.667c-5.89453 0 -10.666 4.76953 -10.667 10.667c0 5.89648 4.77051 10.667 10.667 10.667h234.667c5.89648 0 10.667 -4.77051 10.667 -10.667c0 -5.89551 -4.77051 -10.667 -10.667 -10.667h-234.667zM245.333 192
c5.89551 0 10.667 -4.77148 10.667 -10.667c0 -5.89648 -4.77148 -10.667 -10.667 -10.667h-128c-5.89648 0 -10.667 4.77051 -10.667 10.667c0 5.89551 4.77051 10.667 10.667 10.667h128zM471.167 384c22.5215 0 40.833 -18.3135 40.833 -40.833
c0 -10.7402 -4.35352 -21.2607 -11.958 -28.8652v-0.00976562l-30.708 -30.7031v-176.922c0 -23.5322 -19.1455 -42.667 -42.667 -42.667h-304.917l-103.542 -103.542c-2.04199 -2.04199 -4.77148 -3.125 -7.54199 -3.125c-1.375 0 -2.76953 0.260742 -4.08301 0.813477
c-3.97949 1.64551 -6.58301 5.54004 -6.58301 9.85352v416c0 23.5312 19.1465 42.667 42.667 42.667h384c23.5215 0 42.667 -19.1357 42.667 -42.667v-0.183594c0.616211 0.0283203 1.21484 0.183594 1.83301 0.183594zM448 106.667v155.591l-77.8115 -77.7998
c-1.47949 -1.49023 -3.375 -2.5 -5.45801 -2.91699l-53.3135 -10.667c-0.686523 -0.134766 -1.39453 -0.208008 -2.08301 -0.208008c-2.79199 0 -5.52051 1.10352 -7.54199 3.125c-2.52051 2.51953 -3.625 6.13477 -2.91699 9.63477l10.2432 51.2402h-191.785
c-5.89648 0 -10.667 4.77051 -10.667 10.667c0 5.89551 4.77051 10.667 10.667 10.667h208.899l116.06 116.042c1.74609 1.74902 3.68262 3.28027 5.70801 4.67188v7.28613c0 11.7598 -9.56152 21.333 -21.334 21.333h-384c-11.7695 0 -21.333 -9.57324 -21.333 -21.333
v-390.25l88.458 88.459c2 2 4.70898 3.125 7.54199 3.125h309.334c11.7695 0 21.333 9.57324 21.333 21.333zM357.396 201.823l96.8525 96.8447l-27.5869 27.5869l-96.8281 -96.8281l-6.89551 -34.5zM484.958 329.375c3.625 3.63477 5.70898 8.66699 5.70801 13.792
c0 10.75 -8.75 19.5 -19.5 19.5c-5.14648 0 -10.167 -2.08301 -13.792 -5.69824l-15.6299 -15.6299l27.5889 -27.5889z" />
    <glyph glyph-name="033-arrow-angle-pointing-to-right" unicode="&#xf120;" 
d="M402.693 226.841c9.55664 -9.55664 13.75 -22.3262 12.9824 -34.8408c0.788086 -12.5146 -3.42578 -25.2842 -12.9824 -34.8408l-229.178 -207.894c-17.6855 -17.6865 -46.334 -17.6865 -64.0195 0c-17.6865 17.6855 -17.6865 46.333 0 64.0186l196.997 178.715
l-196.997 178.716c-17.6865 17.6865 -17.6865 46.334 0 64.0195c17.6855 17.6865 46.334 17.6865 64.0195 0z" />
    <glyph glyph-name="006-quote" unicode="&#xf105;" 
d="M118.814 210.87v-41.2139h102.966v-221.774h-221.78v221.774h0.00488281v41.2139c0 83.6895 24.0791 145.834 71.5732 184.716c32.8545 26.8955 74.4404 40.5322 123.606 40.5322v-118.803c-26.6895 0 -76.3701 0 -76.3701 -106.445zM485.407 317.315
c-26.6904 0 -76.3711 0 -76.373 -106.445v-41.2139h102.966v-221.774h-221.772v221.774v0v41.2139c0 83.6875 24.082 145.834 71.5752 184.716c32.8545 26.8955 74.4404 40.5322 123.604 40.5322v-118.803z" />
    <glyph glyph-name="045-triangular-ruler" unicode="&#xf12c;" 
d="M508.596 -44.1348c3.31836 -3.3291 4.31836 -8.33008 2.52246 -12.6826c-1.79492 -4.35156 -6.04395 -7.18164 -10.75 -7.18164h-488.731c-6.43164 0 -11.6367 5.20508 -11.6367 11.6367v488.732c0 4.70508 2.84082 8.9541 7.18164 10.751
c4.34082 1.7832 9.36328 0.805664 12.6816 -2.52344zM442.186 -40.7256h30.0908l-449.004 449.004v-449.004h46.5449v23.2725c0 6.43262 5.20508 11.6377 11.6367 11.6377c6.43262 0 11.6377 -5.20508 11.6377 -11.6377v-23.2725h46.54v11.6367
c0 6.43262 5.20508 11.6377 11.6367 11.6377c6.43262 0 11.6377 -5.20508 11.6377 -11.6377v-11.6367h46.5459v23.2725c0 6.43262 5.20508 11.6377 11.6367 11.6377c6.43262 0 11.6367 -5.20508 11.6367 -11.6377v-23.2725h46.5469v11.6367
c0 6.43262 5.2041 11.6377 11.6367 11.6377c6.43164 0 11.6367 -5.20508 11.6367 -11.6377v-11.6367h46.5459v23.2725c0 6.43262 5.20508 11.6377 11.6367 11.6377c6.43262 0 11.6367 -5.20508 11.6367 -11.6377v-23.2725h46.5469v11.6367
c0 6.43262 5.2041 11.6377 11.6367 11.6377c6.43164 0 11.6367 -5.20508 11.6367 -11.6377v-11.6367zM104.729 29.0938c-6.43262 0 -11.6367 5.20508 -11.6357 11.6367v170.899c0 4.7041 2.84082 8.9541 7.18164 10.749s9.33984 0.795898 12.6816 -2.52246l170.887 -170.899
c3.31836 -3.3291 4.31934 -8.3291 2.52344 -12.6816c-1.7959 -4.35156 -6.0459 -7.18164 -10.75 -7.18164h-170.888zM116.365 183.538v-131.172h131.16z" />
  </font>
</defs>
</svg>
